La Liga de la Justicia de Zack Snyder (2021) PLACEBO 1080p Latino

55 vistas
1 estrella2 estrellas3 estrellas4 estrellas5 estrellas (3 votos, promedio: 5,00 de 5)
Cargando...

Información de La Liga de la Justicia de Zack Snyder (2021) PLACEBO 1080p Latino

Datos de la película

  • Calidad: Full 1080p
  • Audio: Español Latino AC3 5.1 BLURAY - Ingles AC3 5.1 BLURAY
  • Subtitulos: Español Latino PGS - Ingles PGS
  • Resolución: 1920x1080p
  • Formato: MKV
  • Codec: H.264
  • Encoder: Melkor
  • Mediainfo: Clic para Mostrar Datos Ver
  • Liga De La Justicia De Zack Snyder (2021) PLACEBO 1080p Latino.mkv
    Format                      : Matroska
    Format version              : Version 4
    File size                   : 12.3 GiB
    Duration                    : 4 h 2 min
    Overall bit rate            : 7 278 kb/s
    Movie name                  : Zack Snyder's Justice League (2021) CinemaniaHDD.Net
    Encoded date                : UTC 2021-05-18 20:21:22
    Writing application         : mkvmerge v56.1.0 ('My Friend') 64-bit
    Writing library             : libebml v1.4.2 + libmatroska v1.6.4
    Attachments                 : CINEMANIAHD.png

    Video
    ID                          : 1
    Format                      : AVC
    Format/Info                 : Advanced Video Codec
    Format profile              : High@L4.1
    Format settings             : CABAC / 4 Ref Frames
    Format settings, CABAC      : Yes
    Format settings, Reference  : 4 frames
    Codec ID                    : V_MPEG4/ISO/AVC
    Duration                    : 4 h 2 min
    Bit rate                    : 6 174 kb/s
    Width                       : 1 920 pixels
    Height                      : 1 080 pixels
    Display aspect ratio        : 16:9
    Frame rate mode             : Constant
    Frame rate                  : 23.976 (24000/1001) FPS
    Color space                 : YUV
    Chroma subsampling          : 4:2:0
    Bit depth                   : 8 bits
    Scan type                   : Progressive
    Bits/(Pixel*Frame)          : 0.124
    Stream size                 : 10.4 GiB (85%)
    Title                       : Full HD1080p [CinemaniaHDD]
    Writing library             : x264 core 157 r2935 545de2f
    Encoding settings           : cabac=1 / ref=4 / deblock=1:0:0 / analyse=0x3:0x133 / me=tesa / subme=11 / psy=1 / psy_rd=1.00:0.00 / mixed_ref=1 / me_range=24 / chroma_me=1 / trellis=2 / 8x8dct=1 / cqm=0 / deadzone=21,11 / fast_pskip=0 / chroma_qp_offset=-2 / threads=24 / lookahead_threads=6 / sliced_threads=0 / nr=0 / decimate=1 / interlaced=0 / bluray_compat=0 / constrained_intra=0 / bframes=16 / b_pyramid=2 / b_adapt=2 / b_bias=0 / direct=3 / weightb=1 / open_gop=0 / weightp=2 / keyint=240 / keyint_min=24 / scenecut=40 / intra_refresh=0 / rc_lookahead=60 / rc=crf / mbtree=1 / crf=20.0 / qcomp=0.60 / qpmin=0 / qpmax=69 / qpstep=4 / vbv_maxrate=62500 / vbv_bufsize=78125 / crf_max=0.0 / nal_hrd=none / filler=0 / ip_ratio=1.40 / aq=1:1.00
    Default                     : Yes
    Forced                      : Yes
    Color range                 : Limited
    Color primaries             : BT.709
    Transfer characteristics    : BT.709
    Matrix coefficients         : BT.709

    Audio #1
    ID                          : 2
    Format                      : AC-3
    Format/Info                 : Audio Coding 3
    Commercial name             : Dolby Digital
    Codec ID                    : A_AC3
    Duration                    : 4 h 2 min
    Bit rate mode               : Constant
    Bit rate                    : 640 kb/s
    Channel(s)                  : 6 channels
    Channel layout              : L R C LFE Ls Rs
    Sampling rate               : 48.0 kHz
    Frame rate                  : 31.250 FPS (1536 SPF)
    Compression mode            : Lossy
    Stream size                 : 1.08 GiB (9%)
    Title                       : Español Latino [CinemaniaHDD]
    Language                    : Spanish
    Service kind                : Complete Main
    Default                     : Yes
    Forced                      : Yes

    Audio #2
    ID                          : 3
    Format                      : AC-3
    Format/Info                 : Audio Coding 3
    Commercial name             : Dolby Digital
    Codec ID                    : A_AC3
    Duration                    : 4 h 2 min
    Bit rate mode               : Constant
    Bit rate                    : 448 kb/s
    Channel(s)                  : 6 channels
    Channel layout              : L R C LFE Ls Rs
    Sampling rate               : 48.0 kHz
    Frame rate                  : 31.250 FPS (1536 SPF)
    Compression mode            : Lossy
    Delay relative to video     : 18 ms
    Stream size                 : 776 MiB (6%)
    Title                       : Ingles AC3 [CinemaniaHDD]
    Language                    : English
    Service kind                : Complete Main
    Default                     : No
    Forced                      : No

    Text #1
    ID                          : 4
    Format                      : PGS
    Muxing mode                 : zlib
    Codec ID                    : S_HDMV/PGS
    Codec ID/Info               : Picture based subtitle format used on BDs/HD-DVDs
    Duration                    : 3 h 59 min
    Bit rate                    : 17.8 kb/s
    Count of elements           : 2980
    Stream size                 : 30.4 MiB (0%)
    Title                       : Español-PGS [CinemaniaHDD]
    Language                    : Spanish
    Default                     : No
    Forced                      : No

    Text #2
    ID                          : 5
    Format                      : PGS
    Muxing mode                 : zlib
    Codec ID                    : S_HDMV/PGS
    Codec ID/Info               : Picture based subtitle format used on BDs/HD-DVDs
    Duration                    : 4 h 0 min
    Bit rate                    : 25.8 kb/s
    Count of elements           : 5558
    Stream size                 : 44.3 MiB (0%)
    Title                       : Ingles-PGS [CinemaniaHDD]
    Language                    : English
    Default                     : No
    Forced                      : No

    Text #3
    ID                          : 6
    Format                      : UTF-8
    Codec ID                    : S_TEXT/UTF8
    Codec ID/Info               : UTF-8 Plain Text
    Duration                    : 3 h 31 min
    Bit rate                    : 0 b/s
    Count of elements           : 31
    Stream size                 : 897 Bytes (0%)
    Title                       : Forzados-SRT [CinemaniaHDD]
    Language                    : Spanish
    Default                     : Yes
    Forced                      : No

    Text #4
    ID                          : 7
    Format                      : UTF-8
    Codec ID                    : S_TEXT/UTF8
    Codec ID/Info               : UTF-8 Plain Text
    Duration                    : 3 h 51 min
    Bit rate                    : 30 b/s
    Count of elements           : 1488
    Stream size                 : 51.4 KiB (0%)
    Title                       : Español-SRT [CinemaniaHDD]
    Language                    : Spanish
    Default                     : No
    Forced                      : No

    Menu
    00:00:00.000                : Chapter 1
    00:08:54.909                : Part 1: "Don't Count On It, Batman"
    00:19:56.737                : Chapter 3
    00:36:54.504                : Part 2: The Age Of Heroes
    00:41:32.031                : Chapter 5
    00:50:18.640                : Chapter 6
    00:58:42.644                : Chapter 7
    01:08:35.570                : Part 3: Beloved Mother, Beloved Son
    01:20:27.823                : Chapter 9
    01:30:05.316                : Chapter 10
    01:40:28.605                : Chapter 11
    01:51:24.011                : Part 4: "Change Machine"
    01:59:06.931                : Chapter 13
    02:07:56.293                : Chapter 14
    02:21:58.509                : Part 5: All The King's Horses
    02:29:50.106                : Chapter 16
    02:37:27.271                : Chapter 17
    02:48:36.356                : Chapter 18
    02:53:19.514                : Part 6: "Something Darker"
    03:09:54.091                : Chapter 20
    03:21:28.951                : Chapter 21
    03:34:12.006                : Epilogue: A Father Twice Over
    03:40:10.030                : Chapter 23
    03:50:47.458                : Chapter 24
    03:53:27.035                : End Credits

  • Peso: 12.3 GiB

Sinopsis

Descargar La Liga de la Justicia de Zack Snyder (2021) PLACEBO 1080p Latino. Con la determinación de asegurar que el sacrificio definitivo de Superman no fue en vano, Bruce Wayne une fuerzas con Diana Prince para reclutar a un equipo de metahumanos que protejan el mundo de una amenaza inminente de proporciones catastróficas. La tarea es más difícil de lo que Bruce imaginaba, ya que cada uno de los reclutas deberá enfrentarse a sus propios demonios para trascender aquello que los detenía, para unirse y formar de manera definitiva una liga de héroes sin precedentes. Ahora unidos, Batman, Wonder Woman, Aquaman, Cyborg y Flash deberán salvar al planeta de la amenaza de Steppenwolf, DeSaad y Darkseid, antes de que sea demasiado tarde.

Ficha técnica

Video trailer de la película

Enlaces de descarga

Rip de Bluray

Descargar La Liga de la Justicia de Zack Snyder (2021) PLACEBO 1080p Latino




Aportes de DPeliculasHDmega la pass es:dpeliculashdmega.org Aportes de CinemaniaHD la pass es:cinemaniahdd.com

Películas relacionadas

  • Nadie (2021) REMUX 1080p Latino

    Nadie (2021) REMUX 1080p Latino

    2021
    Nadie (2021) REMUX 1080p Latino

    5.0 1h 32m 2021

    Descargar Nadie (2021) REMUX 1080p Latino. Hutch Mansell, un padre de familia que aguanta con resignación...

    Director: Ilya Naishuller

    Género: Acción

    Actores: Yulia Guzhva

  • Annabelle 3: Viene A Casa (2019) Full HD 1080p Latino

    Annabelle 3: Viene A Casa (2019) Full HD 1080p Latino

    2019
    Annabelle 3: Viene A Casa (2019) Full HD 1080p Latino

    5.0 1h 46m 2019

    Descargar Annabelle 3: Viene A Casa (2019) Full HD 1080p Latino. Annabelle Vuelve a Casa es la tercera...

    Director: Gary Dauberman

    Género: FULL 1080p Plateadas

    Actores: Vera Farmiga

  • Annabelle 2: La Creación (2017) Full HD 1080p Latino

    Annabelle 2: La Creación (2017) Full HD 1080p Latino

    2017
    Annabelle 2: La Creación (2017) Full HD 1080p Latino

    4.7 1 h 49 min 2017

    Descargar Annabelle 2: La Creación (2017) Full HD 1080p Latino. Década de los 50. Algunos años después...

    Director: Jan McWilliams

    Género: FULL 1080p Plateadas

    Actores: Ward Horton

  • Annabelle (2014) Full HD 1080p Latino

    Annabelle (2014) Full HD 1080p Latino

    2014
    Annabelle (2014) Full HD 1080p Latino

    5.0 1h 38m 2014

    Descargar Annabelle (2014) Full HD 1080p Latino. John Form encuentra el regalo perfecto para su mujer...

    Director: Sherie Giehtbrock

    Género: FULL 1080p Plateadas

    Actores: Ward Horton

  • Ruega por nosotros (2021) PLACEBO Full HD 1080p Latino

    Ruega por nosotros (2021) PLACEBO Full HD 1080p Latino

    2021
    Ruega por nosotros (2021) PLACEBO Full HD 1080p Latino

    5.0 1h 39m 2021

    Descargar Ruega por nosotros (2021) PLACEBO Full HD 1080p Latino. Se centra en un periodista caído en...

    Director: Evan Spiliotopoulos

    Género: Estrenos

    Actores: William Sadler

La Liga de la Justicia de Zack Snyder (2021) PLACEBO 1080p Latino pelicula full hd, La Liga de la Justicia de Zack Snyder (2021) PLACEBO 1080p Latino mega latino, La Liga de la Justicia de Zack Snyder (2021) PLACEBO 1080p Latino 4k latino, La Liga de la Justicia de Zack Snyder (2021) PLACEBO 1080p Latino pelicula completa, La Liga de la Justicia de Zack Snyder (2021) PLACEBO 1080p Latino descargar gratis, descargar La Liga de la Justicia de Zack Snyder (2021) PLACEBO 1080p Latino pelicula latino, La Liga de la Justicia de Zack Snyder (2021) PLACEBO 1080p Latino 1 link mega, La Liga de la Justicia de Zack Snyder (2021) PLACEBO 1080p Latino 1 link google drive, La Liga de la Justicia de Zack Snyder (2021) PLACEBO 1080p Latino hd 1080p latino.
Comentarios 0