Zack Snyder’s Justice League (2021) HMAX WEB-DL 1080p Latino

324 vistas
1 estrella2 estrellas3 estrellas4 estrellas5 estrellas (7 votos, promedio: 3,57 de 5)
Cargando...

Información de Zack Snyder’s Justice League (2021) HMAX WEB-DL 1080p Latino

Datos de la película

  • Calidad: WEBDL
  • Audio: Español Latino AC3 5.1 WEB-DL - Ingles AC3 5.1 WEB-DL
  • Subtitulos: Español Latino SRT- FORZADOS SRT
  • Resolución: 1920x1080
  • Formato: MKV
  • Codec: H.264
  • Encoder: cinemaniahdd
  • Mediainfo: Clic para Mostrar Datos Ver
  • Zack Snyder's Justice League (2021) HMAX WEB-DL 1080p Latino [CNMNHDD].mkv
    Format                      : Matroska
    Format version              : Version 4
    File size                   : 15.9 GiB
    Duration                    : 4 h 2 min
    Overall bit rate mode       : Variable
    Overall bit rate            : 9 376 kb/s
    Movie name                  : Zack Snyder's Justice League (2021) - CinemaniaHDD.Net
    Encoded date                : UTC 2021-03-18 07:25:54
    Writing application         : mkvmerge v51.0.0 ('I Wish') 64-bit
    Writing library             : libebml v1.4.0 + libmatroska v1.6.2

    Video
    ID                          : 1
    Format                      : AVC
    Format/Info                 : Advanced Video Codec
    Format profile              : High@L4
    Format settings             : CABAC / 4 Ref Frames
    Format settings, CABAC      : Yes
    Format settings, Reference  : 4 frames
    Codec ID                    : V_MPEG4/ISO/AVC
    Duration                    : 4 h 2 min
    Bit rate mode               : Variable
    Bit rate                    : 8 221 kb/s
    Maximum bit rate            : 12.4 Mb/s
    Width                       : 1 920 pixels
    Height                      : 1 080 pixels
    Display aspect ratio        : 16:9
    Frame rate mode             : Constant
    Frame rate                  : 23.976 (24000/1001) FPS
    Color space                 : YUV
    Chroma subsampling          : 4:2:0
    Bit depth                   : 8 bits
    Scan type                   : Progressive
    Bits/(Pixel*Frame)          : 0.165
    Stream size                 : 13.9 GiB (88%)
    Title                       : CinemaniaHDD
    Default                     : Yes
    Forced                      : No
    Color range                 : Limited
    Color primaries             : BT.709
    Transfer characteristics    : BT.709
    Matrix coefficients         : BT.709

    Audio #1
    ID                          : 2
    Format                      : AC-3
    Format/Info                 : Audio Coding 3
    Commercial name             : Dolby Digital
    Codec ID                    : A_AC3
    Duration                    : 4 h 2 min
    Bit rate mode               : Constant
    Bit rate                    : 384 kb/s
    Channel(s)                  : 6 channels
    Channel layout              : L R C LFE Ls Rs
    Sampling rate               : 48.0 kHz
    Frame rate                  : 31.250 FPS (1536 SPF)
    Compression mode            : Lossy
    Stream size                 : 665 MiB (4%)
    Title                       : Español latino [CinemaniaHDD]
    Language                    : Spanish
    Service kind                : Complete Main
    Default                     : Yes
    Forced                      : No

    Audio #2
    ID                          : 3
    Format                      : E-AC-3 JOC
    Format/Info                 : Enhanced AC-3 with Joint Object Coding
    Commercial name             : Dolby Digital Plus with Dolby Atmos
    Codec ID                    : A_EAC3
    Duration                    : 4 h 2 min
    Bit rate mode               : Constant
    Bit rate                    : 768 kb/s
    Channel(s)                  : 6 channels
    Channel layout              : L R C LFE Ls Rs
    Sampling rate               : 48.0 kHz
    Frame rate                  : 31.250 FPS (1536 SPF)
    Compression mode            : Lossy
    Stream size                 : 1.30 GiB (8%)
    Title                       : Inglés [CinemaniaHDD]
    Language                    : English
    Service kind                : Complete Main
    Default                     : No
    Forced                      : No
    Complexity index            : 16
    Number of dynamic objects   : 15
    Bed channel count           : 1 channel
    Bed channel configuration   : LFE

    Text #1
    ID                          : 4
    Format                      : UTF-8
    Codec ID                    : S_TEXT/UTF8
    Codec ID/Info               : UTF-8 Plain Text
    Duration                    : 3 h 53 min
    Bit rate                    : 10 b/s
    Count of elements           : 841
    Stream size                 : 17.5 KiB (0%)
    Title                       : Forzados [CinemaniaHDD]
    Language                    : Spanish
    Default                     : Yes
    Forced                      : Yes

    Text #2
    ID                          : 5
    Format                      : UTF-8
    Codec ID                    : S_TEXT/UTF8
    Codec ID/Info               : UTF-8 Plain Text
    Duration                    : 3 h 53 min
    Bit rate                    : 41 b/s
    Count of elements           : 2614
    Stream size                 : 70.4 KiB (0%)
    Title                       : Español latino [CinemaniaHDD]
    Language                    : Spanish
    Default                     : No
    Forced                      : No

    Text #3
    ID                          : 6
    Format                      : UTF-8
    Codec ID                    : S_TEXT/UTF8
    Codec ID/Info               : UTF-8 Plain Text
    Duration                    : 4 h 0 min
    Bit rate                    : 42 b/s
    Count of elements           : 2799
    Stream size                 : 74.0 KiB (0%)
    Title                       : Inglés [CinemaniaHDD]
    Language                    : English
    Default                     : No
    Forced                      : No

     

  • Peso: 15.9 GiB

Sinopsis

Decidido a garantizar que el último sacrificio de Superman no fuera en vano, Bruce Wayne alinea fuerzas con Diana Prince con planes de reclutar un equipo de metahumanos para proteger al mundo de una amenaza inminente de proporciones catastróficas. La tarea resulta más difícil de lo que Bruce imaginaba, ya que cada uno de los reclutas debe enfrentarse a los demonios de su propio pasado para trascender lo que los ha frenado, permitiéndoles unirse y finalmente formar una liga de héroes sin precedentes. Ahora unidos, Batman, Wonder Woman, Aquaman, Cyborg y The Flash pueden ser demasiado tarde para salvar al planeta de Steppenwolf, DeSaad y Darkseid y sus terribles intenciones.

Ficha técnica

Video trailer de la película

Enlaces de descarga

Rip de Bluray

Descargar Zack Snyder’s Justice League (2021) HMAX WEB-DL 1080p Latino




Aportes de DPeliculasHDmega la pass es:dpeliculashdmega.org Aportes de CinemaniaHD la pass es:cinemaniahdd.com

Películas relacionadas

  • Nadie (2021) REMUX 1080p Latino

    Nadie (2021) REMUX 1080p Latino

    2021
    Nadie (2021) REMUX 1080p Latino

    5.0 1h 32m 2021

    Descargar Nadie (2021) REMUX 1080p Latino. Hutch Mansell, un padre de familia que aguanta con resignación...

    Director: Ilya Naishuller

    Género: Acción

    Actores: Yulia Guzhva

  • Locked Down (2021) HMAX WEB-DL 1080p Latino

    Locked Down (2021) HMAX WEB-DL 1080p Latino

    2021
    Locked Down (2021) HMAX WEB-DL 1080p Latino

    5.0 1h 58m 2021

    Linda y Paxton son una pareja con problemas pero que deciden pausar su separación con un objetivo: aprovecharse...

    Director: Sam Barry-Parker

    Género: Comedia

    Actores: Tallulah Greive

  • Godzilla vs Kong (2021) REMUX 4K HDR Latino – CMHDD

    Godzilla vs Kong (2021) REMUX 4K HDR Latino – CMHDD

    2021
    Godzilla vs Kong (2021) REMUX 4K HDR Latino – CMHDD

    5.0 1h 53m 2021

    Godzilla y Kong, dos de las fuerzas más poderosas de un planeta habitado por todo tipo de aterradoras...

    Director: Thomas Robinson Harper

    Género: Acción

    Actores: Victoria Liu

Zack Snyder’s Justice League (2021) HMAX WEB-DL 1080p Latino pelicula full hd, Zack Snyder’s Justice League (2021) HMAX WEB-DL 1080p Latino mega latino, Zack Snyder’s Justice League (2021) HMAX WEB-DL 1080p Latino 4k latino, Zack Snyder’s Justice League (2021) HMAX WEB-DL 1080p Latino pelicula completa, Zack Snyder’s Justice League (2021) HMAX WEB-DL 1080p Latino descargar gratis, descargar Zack Snyder’s Justice League (2021) HMAX WEB-DL 1080p Latino pelicula latino, Zack Snyder’s Justice League (2021) HMAX WEB-DL 1080p Latino 1 link mega, Zack Snyder’s Justice League (2021) HMAX WEB-DL 1080p Latino 1 link google drive, Zack Snyder’s Justice League (2021) HMAX WEB-DL 1080p Latino hd 1080p latino.
Comentarios 5
  • ben - 18 marzo, 2021

    Gracias,, que es HMAX?

  • Oswaldo Escobar - 18 marzo, 2021

    La diferencia entre esta versión FHD y la de amzn web solo es el ratio? o hay algo más?

    • CinemaniaHDD - 18 marzo, 2021

      ninguna, ambas son en 4:3 solo que la amazon no tiene bordes negro pero cuando la veas esos bordes apareceran en automatico generados por tu dispositivo xq la imagen es 4:3
      full aspecto es cuando sea 16:9 esa resolucion si es pantalla completa sin bordes negros

  • galaxyo - 18 marzo, 2021

    Tan rapido ya se las tumbaron de todos los servidores, que mala suerte

    • CinemaniaHDD - 18 marzo, 2021

      Hola, no es asi solo google drive esta limitado ya es cuestion tuya si esperas o compras premium en mega, uptobox o 1fichier o bajar de onedrive