La Liga de la Justicia de Zack Snyder (2021) AMZN Web-DL 1080p Latino

155 vistas
1 estrella2 estrellas3 estrellas4 estrellas5 estrellas (8 votos, promedio: 4,75 de 5)
Cargando...

Información de La Liga de la Justicia de Zack Snyder (2021) AMZN Web-DL 1080p Latino

Datos de la película

  • Calidad: WEBDL
  • Audio: Español Latino E-AC3 5.1 AMAZON - Ingles E-AC3 5.1 AMAZON
  • Subtitulos: Español Latino SRT- FORZADOS SRT
  • Resolución: 1440x1080p
  • Formato: MKV
  • Codec: H.264
  • Encoder: CinemaniaHD
  • Mediainfo: Clic para Mostrar Datos Ver
  • Liga De La Justicia De Zack Snyder (2021) AMZN WebDL 1080p Latino.mkv
    Format                      : Matroska
    Format version              : Version 4
    File size                   : 18.4 GiB
    Duration                    : 4 h 2 min
    Overall bit rate            : 10.9 Mb/s
    Movie name                  : Zack Snyder's Justice League (2021) CinemaniaHDD.Net
    Encoded date                : UTC 2021-03-18 09:52:34
    Writing application         : mkvmerge v51.0.0 ('I Wish') 64-bit
    Writing library             : libebml v1.4.0 + libmatroska v1.6.2
    Attachments                 : CINEMANIAHD.png

    Video
    ID                          : 1
    Format                      : AVC
    Format/Info                 : Advanced Video Codec
    Format profile              : High@L4
    Format settings             : CABAC / 4 Ref Frames
    Format settings, CABAC      : Yes
    Format settings, Reference  : 4 frames
    Codec ID                    : V_MPEG4/ISO/AVC
    Duration                    : 4 h 2 min
    Bit rate mode               : Constant
    Bit rate                    : 8 955 kb/s
    Nominal bit rate            : 10 000 kb/s
    Width                       : 1 440 pixels
    Height                      : 1 080 pixels
    Display aspect ratio        : 4:3
    Frame rate mode             : Constant
    Frame rate                  : 23.976 (24000/1001) FPS
    Color space                 : YUV
    Chroma subsampling          : 4:2:0
    Bit depth                   : 8 bits
    Scan type                   : Progressive
    Bits/(Pixel*Frame)          : 0.240
    Stream size                 : 15.1 GiB (82%)
    Title                       : WEB HD1080p [CinemaniaHDD]
    Default                     : Yes
    Forced                      : No
    Color range                 : Limited
    Color primaries             : BT.709
    Transfer characteristics    : BT.709
    Matrix coefficients         : BT.709

    Audio #1
    ID                          : 2
    Format                      : E-AC-3
    Format/Info                 : Enhanced AC-3
    Commercial name             : Dolby Digital Plus
    Codec ID                    : A_EAC3
    Duration                    : 4 h 2 min
    Bit rate mode               : Constant
    Bit rate                    : 640 kb/s
    Channel(s)                  : 6 channels
    Channel layout              : L R C LFE Ls Rs
    Sampling rate               : 48.0 kHz
    Frame rate                  : 31.250 FPS (1536 SPF)
    Compression mode            : Lossy
    Stream size                 : 1.08 GiB (6%)
    Title                       : Español Latino [CinemaniaHDD]
    Language                    : Spanish
    Service kind                : Complete Main
    Default                     : Yes
    Forced                      : No

    Audio #2
    ID                          : 3
    Format                      : E-AC-3
    Format/Info                 : Enhanced AC-3
    Commercial name             : Dolby Digital Plus
    Codec ID                    : A_EAC3
    Duration                    : 4 h 2 min
    Bit rate mode               : Constant
    Bit rate                    : 640 kb/s
    Channel(s)                  : 6 channels
    Channel layout              : L R C LFE Ls Rs
    Sampling rate               : 48.0 kHz
    Frame rate                  : 31.250 FPS (1536 SPF)
    Compression mode            : Lossy
    Stream size                 : 1.08 GiB (6%)
    Title                       : Ingles [CinemaniaHDD]
    Language                    : English
    Service kind                : Complete Main
    Default                     : No
    Forced                      : No

    Audio #3
    ID                          : 4
    Format                      : AC-3
    Format/Info                 : Audio Coding 3
    Commercial name             : Dolby Digital
    Codec ID                    : A_AC3
    Duration                    : 4 h 2 min
    Bit rate mode               : Constant
    Bit rate                    : 640 kb/s
    Channel(s)                  : 6 channels
    Channel layout              : L R C LFE Ls Rs
    Sampling rate               : 48.0 kHz
    Frame rate                  : 31.250 FPS (1536 SPF)
    Compression mode            : Lossy
    Stream size                 : 1.08 GiB (6%)
    Title                       : Español Latino AC3[CinemaniaHDD]
    Language                    : Spanish
    Service kind                : Complete Main
    Default                     : No
    Forced                      : No

    Text #1
    ID                          : 5
    Format                      : UTF-8
    Codec ID                    : S_TEXT/UTF8
    Codec ID/Info               : UTF-8 Plain Text
    Duration                    : 3 h 31 min
    Bit rate                    : 0 b/s
    Count of elements           : 31
    Stream size                 : 897 Bytes (0%)
    Title                       : Forzados-SRT [CinemaniaHDD]
    Language                    : Spanish
    Default                     : Yes
    Forced                      : No

    Text #2
    ID                          : 6
    Format                      : UTF-8
    Codec ID                    : S_TEXT/UTF8
    Codec ID/Info               : UTF-8 Plain Text
    Duration                    : 3 h 50 min
    Bit rate                    : 30 b/s
    Count of elements           : 1488
    Stream size                 : 51.4 KiB (0%)
    Title                       : Español-SRT [CinemaniaHDD]
    Language                    : Spanish
    Default                     : No
    Forced                      : No

    Text #3
    ID                          : 7
    Format                      : UTF-8
    Codec ID                    : S_TEXT/UTF8
    Codec ID/Info               : UTF-8 Plain Text
    Duration                    : 3 h 56 min
    Bit rate                    : 30 b/s
    Count of elements           : 2068
    Stream size                 : 53.5 KiB (0%)
    Title                       : Ingles-SRT [CinemaniaHDD]
    Language                    : English
    Default                     : No
    Forced                      : No

  • Peso: 18.4 GiB

Sinopsis

Descargar La Liga de la Justicia de Zack Snyder (2021) AMZN Web-DL 1080p Latino. Decidido a garantizar que el último sacrificio de Superman no fuera en vano, Bruce Wayne alinea fuerzas con Diana Prince con planes de reclutar un equipo de metahumanos para proteger al mundo de una amenaza inminente de proporciones catastróficas. La tarea resulta más difícil de lo que Bruce imaginaba, ya que cada uno de los reclutas debe enfrentarse a los demonios de su propio pasado para trascender lo que los ha frenado, permitiéndoles unirse y finalmente formar una liga de héroes sin precedentes. Ahora unidos, Batman, Wonder Woman, Aquaman, Cyborg y The Flash pueden ser demasiado tarde para salvar al planeta de Steppenwolf, DeSaad y Darkseid y sus terribles intenciones.

Ficha técnica

Video trailer de la película

Enlaces de descarga

Rip de Bluray

Descargar La Liga de la Justicia de Zack Snyder (2021) AMZN Web-DL 1080p Latino




Aportes de DPeliculasHDmega la pass es:dpeliculashdmega.org Aportes de CinemaniaHD la pass es:cinemaniahdd.com

Películas relacionadas

  • Nadie (2021) REMUX 1080p Latino

    Nadie (2021) REMUX 1080p Latino

    2021
    Nadie (2021) REMUX 1080p Latino

    5.0 1h 32m 2021

    Descargar Nadie (2021) REMUX 1080p Latino. Hutch Mansell, un padre de familia que aguanta con resignación...

    Director: Ilya Naishuller

    Género: Acción

    Actores: Yulia Guzhva

  • Godzilla vs Kong (2021) REMUX 4K HDR Latino – CMHDD

    Godzilla vs Kong (2021) REMUX 4K HDR Latino – CMHDD

    2021
    Godzilla vs Kong (2021) REMUX 4K HDR Latino – CMHDD

    5.0 1h 53m 2021

    Godzilla y Kong, dos de las fuerzas más poderosas de un planeta habitado por todo tipo de aterradoras...

    Director: Thomas Robinson Harper

    Género: Acción

    Actores: Victoria Liu

La Liga de la Justicia de Zack Snyder (2021) AMZN Web-DL 1080p Latino pelicula full hd, La Liga de la Justicia de Zack Snyder (2021) AMZN Web-DL 1080p Latino mega latino, La Liga de la Justicia de Zack Snyder (2021) AMZN Web-DL 1080p Latino 4k latino, La Liga de la Justicia de Zack Snyder (2021) AMZN Web-DL 1080p Latino pelicula completa, La Liga de la Justicia de Zack Snyder (2021) AMZN Web-DL 1080p Latino descargar gratis, descargar La Liga de la Justicia de Zack Snyder (2021) AMZN Web-DL 1080p Latino pelicula latino, La Liga de la Justicia de Zack Snyder (2021) AMZN Web-DL 1080p Latino 1 link mega, La Liga de la Justicia de Zack Snyder (2021) AMZN Web-DL 1080p Latino 1 link google drive, La Liga de la Justicia de Zack Snyder (2021) AMZN Web-DL 1080p Latino hd 1080p latino.
Comentarios 4
  • Alvan Jeral Riveros González - 18 marzo, 2021

    Porque en esta versión se ve a pantalla completa, o solo se agrando pero se pierde imagen en las partes de arriba

    • CinemaniaHDD - 18 marzo, 2021

      asi lo genero amazon es lo mismo que hbomax pero sin las franjas a los laterales.
      igual tu pantalla se acomodara a la resolucion, osea se pondra la imagen en el centro y a los lados los bordes negros

  • Comorales - 18 marzo, 2021

    Agradezco mucho todo el material que comparten, pero ya se hace demasiado desesperante tener que dar soportar hasta 12 ventanas emergentes por cada link.

    • CinemaniaHDD - 18 marzo, 2021

      Compra VIP o sigue en free, es tu decision completamente.