×

¿Problemas para descargar con Mozilla, EDGE? Deshabilita la opción "Abrir vinculos en una pestaña nueva" tal como lo muestra ésta imagen.

Z-O-M-B-I-E-S 3 (2022) WEB-DL 1080p Latino

163 vistas

Información de Z-O-M-B-I-E-S 3 (2022) WEB-DL 1080p Latino

Datos de la película

  • Calidad: 1080p
  • Audio: Español Latino AC3 5.1 WEB-DL - Ingles AC3 5.1 WEB-DL
  • Subtitulos: Español Latino SRT- FORZADOS SRT
  • Resolución: 1920x1080
  • Formato: MKV
  • Codec: H.264
  • Encoder: cinemaniahdd
  • Mediainfo: Clic para Mostrar Datos Ver
  • ZOMBIES 3 (2022) WEB-DL 1080p Latino.mkv
    Format                      : Matroska
    Format version              : Version 4
    File size                   : 5.08 GiB
    Duration                    : 1 h 28 min
    Overall bit rate mode       : Variable
    Overall bit rate            : 8 236 kb/s
    Movie name                  : ZOMBIES 3 (2022) [1080p] - CinemaniaHDD.Net
    Encoded date                : UTC 2022-07-17 00:10:56
    Writing application         : mkvmerge v56.1.0 ('My Friend') 64-bit
    Writing library             : libebml v1.4.2 + libmatroska v1.6.4

    Video
    ID                          : 1
    Format                      : AVC
    Format/Info                 : Advanced Video Codec
    Format profile              : High@L4
    Format settings             : CABAC / 4 Ref Frames
    Format settings, CABAC      : Yes
    Format settings, Reference  : 4 frames
    Codec ID                    : V_MPEG4/ISO/AVC
    Duration                    : 1 h 28 min
    Bit rate mode               : Variable
    Bit rate                    : 7 209 kb/s
    Maximum bit rate            : 12.7 Mb/s
    Width                       : 1 920 pixels
    Height                      : 1 080 pixels
    Display aspect ratio        : 16:9
    Frame rate mode             : Constant
    Frame rate                  : 23.976 (24000/1001) FPS
    Color space                 : YUV
    Chroma subsampling          : 4:2:0
    Bit depth                   : 8 bits
    Scan type                   : Progressive
    Bits/(Pixel*Frame)          : 0.145
    Stream size                 : 4.45 GiB (88%)
    Title                       : CinemaniaHDD
    Default                     : Yes
    Forced                      : No
    Color range                 : Limited
    Color primaries             : BT.709
    Transfer characteristics    : BT.709
    Matrix coefficients         : BT.709

    Audio #1
    ID                          : 2
    Format                      : E-AC-3
    Format/Info                 : Enhanced AC-3
    Commercial name             : Dolby Digital Plus
    Codec ID                    : A_EAC3
    Duration                    : 1 h 28 min
    Bit rate mode               : Constant
    Bit rate                    : 256 kb/s
    Channel(s)                  : 6 channels
    Channel layout              : L R C LFE Ls Rs
    Sampling rate               : 48.0 kHz
    Frame rate                  : 31.250 FPS (1536 SPF)
    Compression mode            : Lossy
    Stream size                 : 162 MiB (3%)
    Title                       : Español latino [CinemaniaHDD]
    Language                    : Spanish
    Service kind                : Complete Main
    Default                     : Yes
    Forced                      : No

    Audio #2
    ID                          : 3
    Format                      : E-AC-3 JOC
    Format/Info                 : Enhanced AC-3 with Joint Object Coding
    Commercial name             : Dolby Digital Plus with Dolby Atmos
    Codec ID                    : A_EAC3
    Duration                    : 1 h 28 min
    Bit rate mode               : Constant
    Bit rate                    : 768 kb/s
    Channel(s)                  : 6 channels
    Channel layout              : L R C LFE Ls Rs
    Sampling rate               : 48.0 kHz
    Frame rate                  : 31.250 FPS (1536 SPF)
    Compression mode            : Lossy
    Stream size                 : 485 MiB (9%)
    Title                       : Inglés [CinemaniaHDD]
    Language                    : English
    Service kind                : Complete Main
    Default                     : No
    Forced                      : No
    Complexity index            : 16
    Number of dynamic objects   : 15
    Bed channel count           : 1 channel
    Bed channel configuration   : LFE

    Text #1
    ID                          : 4
    Format                      : UTF-8
    Codec ID                    : S_TEXT/UTF8
    Codec ID/Info               : UTF-8 Plain Text
    Duration                    : 1 h 27 min
    Bit rate                    : 23 b/s
    Count of elements           : 314
    Stream size                 : 14.9 KiB (0%)
    Title                       : Forzados [CinemaniaHDD]
    Language                    : Spanish
    Default                     : Yes
    Forced                      : Yes

    Text #2
    ID                          : 5
    Format                      : UTF-8
    Codec ID                    : S_TEXT/UTF8
    Codec ID/Info               : UTF-8 Plain Text
    Duration                    : 1 h 28 min
    Bit rate                    : 78 b/s
    Count of elements           : 1288
    Stream size                 : 50.9 KiB (0%)
    Title                       : Español latino [CinemaniaHDD]
    Language                    : Spanish
    Default                     : No
    Forced                      : No

     

  • Peso: 5.08 GiB

Sinopsis

Es el último curso de Zed y Addison en Seabrook y la ciudad se ha convertido en un refugio donde monstruos y humanos conviven. Zed intenta conseguir una beca de fútbol americano para ser el primer zombi en ir a la universidad. Addison organiza una competición de animación internacional. Cuando unos seres intergalácticos aparecen para participar en la competición, Seabrook sospecha que quizá vengan a algo muy diferente.

Ficha técnica

Video trailer de la película

Enlaces de descarga

Rip de Bluray

Descargar Z-O-M-B-I-E-S 3 (2022) WEB-DL 1080p Latino




Aportes de DPeliculasHDmega la pass es:dpeliculashdmega.org Aportes de CinemaniaHD la pass es:cinemaniahdd.com

Películas relacionadas

  • La familia Monster (2022) HD 1080p Latino

    La familia Monster (2022) HD 1080p Latino

    2022
    La familia Monster (2022) HD 1080p Latino

    1h 49m 2022

    Descargar La familia Monster (2022) HD 1080p Latino. Reboot de "The Munsters", que sigue las desventuras...

    Director: Rob Zombie

    Género: Comedia

    Actores: Tomas Boykin

  • La familia Monster (2022) REMUX 1080p Latino

    La familia Monster (2022) REMUX 1080p Latino

    2022
    La familia Monster (2022) REMUX 1080p Latino

    1h 49m 2022

    Descargar La familia Monster (2022) REMUX 1080p Latino. Reboot de "The Munsters", que sigue las desventuras...

    Director: Rob Zombie

    Género: Comedia

    Actores: Tomas Boykin

  • Cobra Kai (2022) Temporada 5 NF WEB-DL 1080p Latino

    Cobra Kai (2022) Temporada 5 NF WEB-DL 1080p Latino

    2018
    Cobra Kai (2022) Temporada 5 NF WEB-DL 1080p Latino

    0h 30m 2018

    Descargar Cobra Kai (2022) Temporada 5 NF WEB-DL 1080p Latino. Cobra Kai tiene lugar treinta y cuatro...

    Director: Josh Heald

    Género: Action & Adventure

    Actores: Xolo Mariduena

  • Cobra Kai (2019) Temporada 02 Full HD 1080p Latino

    Cobra Kai (2019) Temporada 02 Full HD 1080p Latino

    2018
    Cobra Kai (2019) Temporada 02 Full HD 1080p Latino

    0h 30m 2018

    Descargar Cobra Kai (2019) Temporada 02 Full HD 1080p Latino. La segunda temporada continúa con la lucha...

    Director: Josh Heald

    Género: Action & Adventure

    Actores: Xolo Mariduena

descargar Z-O-M-B-I-E-S 3 (2022) WEB-DL 1080p Latino 1080p 1080p gratis, Z-O-M-B-I-E-S 3 (2022) WEB-DL 1080p Latino 1080p mega 1 link, Z-O-M-B-I-E-S 3 (2022) WEB-DL 1080p Latino 1080p pelicula completa, descargar Z-O-M-B-I-E-S 3 (2022) WEB-DL 1080p Latino 1080p gratis en mega.

Z-O-M-B-I-E-S 3 (2022) WEB-DL 1080p Latino pelicula full hd, Z-O-M-B-I-E-S 3 (2022) WEB-DL 1080p Latino mega latino, Z-O-M-B-I-E-S 3 (2022) WEB-DL 1080p Latino 4k latino, Z-O-M-B-I-E-S 3 (2022) WEB-DL 1080p Latino pelicula completa, Z-O-M-B-I-E-S 3 (2022) WEB-DL 1080p Latino descargar gratis, descargar Z-O-M-B-I-E-S 3 (2022) WEB-DL 1080p Latino pelicula latino, Z-O-M-B-I-E-S 3 (2022) WEB-DL 1080p Latino 1 link mega, Z-O-M-B-I-E-S 3 (2022) WEB-DL 1080p Latino 1 link google drive, Z-O-M-B-I-E-S 3 (2022) WEB-DL 1080p Latino hd 1080p latino.
Comentarios 0