×

¿Problemas para descargar con Mozilla, EDGE? Deshabilita la opción "Abrir vinculos en una pestaña nueva" tal como lo muestra ésta imagen.

Z-O-M-B-I-E-S (2018) WEB-DL 1080p Latino

118 vistas

Información de Z-O-M-B-I-E-S (2018) WEB-DL 1080p Latino

Datos de la película

  • Calidad: 1080p
  • Audio: Español Latino AC3 2.0 WEB-DL - Ingles AC3 5.1 WEB-DL
  • Subtitulos: Español Latino SRT- FORZADOS SRT
  • Resolución: 1920x1080
  • Formato: MKV
  • Codec: H.264
  • Encoder: cinemaniahdd
  • Mediainfo: Clic para Mostrar Datos Ver
  • ZOMBIES (2018) WEB-DL 1080p Latino.mkv
    Format                      : Matroska
    Format version              : Version 4
    File size                   : 4.85 GiB
    Duration                    : 1 h 34 min
    Overall bit rate mode       : Variable
    Overall bit rate            : 7 379 kb/s
    Movie name                  : ZOMBIES (2018) [1080p] - CinemaniaHDD.Net
    Encoded date                : UTC 2022-07-17 00:03:34
    Writing application         : mkvmerge v59.0.0 ('Shining Star') 64-bit
    Writing library             : libebml v1.4.2 + libmatroska v1.6.4

    Video
    ID                          : 1
    Format                      : AVC
    Format/Info                 : Advanced Video Codec
    Format profile              : High@L4
    Format settings             : CABAC / 4 Ref Frames
    Format settings, CABAC      : Yes
    Format settings, Reference  : 4 frames
    Codec ID                    : V_MPEG4/ISO/AVC
    Duration                    : 1 h 34 min
    Bit rate mode               : Variable
    Bit rate                    : 6 995 kb/s
    Maximum bit rate            : 12.7 Mb/s
    Width                       : 1 920 pixels
    Height                      : 1 080 pixels
    Display aspect ratio        : 16:9
    Frame rate mode             : Constant
    Frame rate                  : 23.976 (24000/1001) FPS
    Color space                 : YUV
    Chroma subsampling          : 4:2:0
    Bit depth                   : 8 bits
    Scan type                   : Progressive
    Bits/(Pixel*Frame)          : 0.141
    Stream size                 : 4.60 GiB (95%)
    Title                       : CinemaniaHDD
    Default                     : Yes
    Forced                      : No
    Color range                 : Limited
    Color primaries             : BT.709
    Transfer characteristics    : BT.709
    Matrix coefficients         : BT.709

    Audio #1
    ID                          : 2
    Format                      : AAC LC
    Format/Info                 : Advanced Audio Codec Low Complexity
    Codec ID                    : A_AAC-2
    Duration                    : 1 h 34 min
    Bit rate                    : 125 kb/s
    Channel(s)                  : 2 channels
    Channel layout              : L R
    Sampling rate               : 48.0 kHz
    Frame rate                  : 46.875 FPS (1024 SPF)
    Compression mode            : Lossy
    Stream size                 : 84.4 MiB (2%)
    Title                       : Español latino [CinemaniaHDD]
    Language                    : Spanish
    Default                     : No
    Forced                      : No

    Audio #2
    ID                          : 3
    Format                      : E-AC-3
    Format/Info                 : Enhanced AC-3
    Commercial name             : Dolby Digital Plus
    Codec ID                    : A_EAC3
    Duration                    : 1 h 34 min
    Bit rate mode               : Constant
    Bit rate                    : 256 kb/s
    Channel(s)                  : 6 channels
    Channel layout              : L R C LFE Ls Rs
    Sampling rate               : 48.0 kHz
    Frame rate                  : 31.250 FPS (1536 SPF)
    Compression mode            : Lossy
    Stream size                 : 172 MiB (3%)
    Title                       : Inglés [CinemaniaHDD]
    Language                    : English
    Service kind                : Complete Main
    Default                     : No
    Forced                      : No

    Text #1
    ID                          : 4
    Format                      : UTF-8
    Codec ID                    : S_TEXT/UTF8
    Codec ID/Info               : UTF-8 Plain Text
    Duration                    : 1 h 34 min
    Bit rate                    : 26 b/s
    Count of elements           : 370
    Stream size                 : 18.2 KiB (0%)
    Title                       : Forzados [CinemaniaHDD]
    Language                    : Spanish
    Default                     : No
    Forced                      : Yes

    Text #2
    ID                          : 5
    Format                      : UTF-8
    Codec ID                    : S_TEXT/UTF8
    Codec ID/Info               : UTF-8 Plain Text
    Duration                    : 1 h 34 min
    Bit rate                    : 76 b/s
    Count of elements           : 1412
    Stream size                 : 52.9 KiB (0%)
    Title                       : Español latino [CinemaniaHDD]
    Language                    : Spanish
    Default                     : No
    Forced                      : No

     

  • Peso: 4.85 GiB

Sinopsis

Seabrook es una ciudad pequeña preocupada por la uniformidad, las tradiciones y los espectáculos de animadoras, hasta que llegan alumnos de Ciudad Zombi a su instituto. Los estudiantes humanos y zombis se esfuerzan por coexistir y surge una amistad entre una animadora llamada Addison y un zombi llamado Zed que puede acabar uniendo al instituto y a la comunidad.

Ficha técnica

Video trailer de la película

Enlaces de descarga

Rip de Bluray

Descargar Z-O-M-B-I-E-S (2018) WEB-DL 1080p Latino




Aportes de DPeliculasHDmega la pass es:dpeliculashdmega.org Aportes de CinemaniaHD la pass es:cinemaniahdd.com

Películas relacionadas

  • La familia Monster (2022) HD 1080p Latino

    La familia Monster (2022) HD 1080p Latino

    2022
    La familia Monster (2022) HD 1080p Latino

    1h 49m 2022

    Descargar La familia Monster (2022) HD 1080p Latino. Reboot de "The Munsters", que sigue las desventuras...

    Director: Rob Zombie

    Género: Comedia

    Actores: Tomas Boykin

  • La familia Monster (2022) REMUX 1080p Latino

    La familia Monster (2022) REMUX 1080p Latino

    2022
    La familia Monster (2022) REMUX 1080p Latino

    1h 49m 2022

    Descargar La familia Monster (2022) REMUX 1080p Latino. Reboot de "The Munsters", que sigue las desventuras...

    Director: Rob Zombie

    Género: Comedia

    Actores: Tomas Boykin

  • Cobra Kai (2022) Temporada 5 NF WEB-DL 1080p Latino

    Cobra Kai (2022) Temporada 5 NF WEB-DL 1080p Latino

    2018
    Cobra Kai (2022) Temporada 5 NF WEB-DL 1080p Latino

    0h 30m 2018

    Descargar Cobra Kai (2022) Temporada 5 NF WEB-DL 1080p Latino. Cobra Kai tiene lugar treinta y cuatro...

    Director: Josh Heald

    Género: Action & Adventure

    Actores: Xolo Mariduena

  • Cobra Kai (2019) Temporada 02 Full HD 1080p Latino

    Cobra Kai (2019) Temporada 02 Full HD 1080p Latino

    2018
    Cobra Kai (2019) Temporada 02 Full HD 1080p Latino

    0h 30m 2018

    Descargar Cobra Kai (2019) Temporada 02 Full HD 1080p Latino. La segunda temporada continúa con la lucha...

    Director: Josh Heald

    Género: Action & Adventure

    Actores: Xolo Mariduena

descargar Z-O-M-B-I-E-S (2018) WEB-DL 1080p Latino 1080p 1080p gratis, Z-O-M-B-I-E-S (2018) WEB-DL 1080p Latino 1080p mega 1 link, Z-O-M-B-I-E-S (2018) WEB-DL 1080p Latino 1080p pelicula completa, descargar Z-O-M-B-I-E-S (2018) WEB-DL 1080p Latino 1080p gratis en mega.

Z-O-M-B-I-E-S (2018) WEB-DL 1080p Latino pelicula full hd, Z-O-M-B-I-E-S (2018) WEB-DL 1080p Latino mega latino, Z-O-M-B-I-E-S (2018) WEB-DL 1080p Latino 4k latino, Z-O-M-B-I-E-S (2018) WEB-DL 1080p Latino pelicula completa, Z-O-M-B-I-E-S (2018) WEB-DL 1080p Latino descargar gratis, descargar Z-O-M-B-I-E-S (2018) WEB-DL 1080p Latino pelicula latino, Z-O-M-B-I-E-S (2018) WEB-DL 1080p Latino 1 link mega, Z-O-M-B-I-E-S (2018) WEB-DL 1080p Latino 1 link google drive, Z-O-M-B-I-E-S (2018) WEB-DL 1080p Latino hd 1080p latino.
Comentarios 0