Z Nation (2017) Temporada 4 NF 1080p Latino

203 vistas
1 estrella2 estrellas3 estrellas4 estrellas5 estrellas (1 votos, promedio: 5,00 de 5)
Cargando…

Información de Z Nation (2017) Temporada 4 NF 1080p Latino

Datos de la película

  • Calidad: WEBDL
  • Audio: Se especifica abajo de la Sinopsis
  • Subtitulos: Español Latino SRT- FORZADOS SRT
  • Resolución: 1920x1080
  • Formato: MKV
  • Codec: H.264
  • Encoder: cinemaniahd
  • Mediainfo: Clic para Mostrar Datos Ver
  • Z Nation S04E01 NF 1080p Latino.mkv
    Format                      : Matroska
    Format version              : Version 4
    File size                   : 2.41 GiB
    Duration                    : 43 min 17 s
    Overall bit rate mode       : Variable
    Overall bit rate            : 7 983 kb/s
    Movie name                  : Z Nation S04E01
    Encoded date                : UTC 2019-02-09 13:49:58 / UTC 2018-06-01 16:22:26
    Writing application         : mkvmerge v11.0.0 ('Alive') 64bit
    Writing library             : libebml v1.3.4 + libmatroska v1.4.5 / Lavf58.0.0

    Video
    ID                          : 1
    Format                      : AVC
    Format/Info                 : Advanced Video Codec
    Format profile              : [email protected]
    Format settings             : CABAC / 3 Ref Frames
    Format settings, CABAC      : Yes
    Format settings, ReFrames   : 3 frames
    Codec ID                    : V_MPEG4/ISO/AVC
    Duration                    : 43 min 17 s
    Bit rate mode               : Variable
    Bit rate                    : 7 500 kb/s
    Maximum bit rate            : 11.2 Mb/s
    Width                       : 1 920 pixels
    Height                      : 1 080 pixels
    Display aspect ratio        : 16:9
    Frame rate mode             : Constant
    Frame rate                  : 23.976 (24000/1001) FPS
    Color space                 : YUV
    Chroma subsampling          : 4:2:0
    Bit depth                   : 8 bits
    Scan type                   : Progressive
    Bits/(Pixel*Frame)          : 0.151
    Stream size                 : 2.21 GiB (92%)
    Title                       : CinemaniaHDD
    Writing library             : x264 core 148 r2714 2daf636
    Encoding settings           : cabac=1 / ref=3 / deblock=1:0:0 / analyse=0x1:0x111 / me=umh / subme=10 / psy=1 / psy_rd=1.00:0.00 / mixed_ref=1 / me_range=24 / chroma_me=1 / trellis=2 / 8x8dct=0 / cqm=0 / deadzone=21,11 / fast_pskip=1 / chroma_qp_offset=-2 / threads=8 / lookahead_threads=1 / sliced_threads=0 / nr=0 / decimate=1 / interlaced=0 / bluray_compat=0 / stitchable=1 / constrained_intra=0 / bframes=2 / b_pyramid=0 / b_adapt=2 / b_bias=0 / direct=3 / weightb=1 / open_gop=0 / weightp=2 / keyint=48 / keyint_min=25 / scenecut=0 / intra_refresh=0 / rc_lookahead=48 / rc=2pass / mbtree=1 / bitrate=7500 / ratetol=1.0 / qcomp=0.50 / qpmin=6 / qpmax=51 / qpstep=4 / cplxblur=20.0 / qblur=0.5 / vbv_maxrate=11250 / vbv_bufsize=15000 / nal_hrd=vbr / filler=0 / ip_ratio=1.40 / aq=1:1.00
    Default                     : Yes
    Forced                      : No
    Statistics Tags Issue       : mkvmerge v11.0.0 ('Alive') 64bit 2019-02-09 13:49:58 / mkvmerge v11.0.0 ('Alive') 64bit 2019-02-09 13:49:58 / UTC 2018-06-01 16:22:26
    FromStats_BitRate           : 7469987
    FromStats_Duration          : 00:43:16.678000000
    FromStats_FrameCount        : 62258
    FromStats_StreamSize        : 2424644068

    Audio #1
    ID                          : 2
    Format                      : E-AC-3
    Format/Info                 : Enhanced AC-3
    Commercial name             : Dolby Digital Plus
    Codec ID                    : A_EAC3
    Duration                    : 43 min 17 s
    Bit rate mode               : Constant
    Bit rate                    : 128 kb/s
    Channel(s)                  : 2 channels
    Channel layout              : L R
    Sampling rate               : 48.0 kHz
    Frame rate                  : 31.250 FPS (1536 SPF)
    Compression mode            : Lossy
    Stream size                 : 39.6 MiB (2%)
    Title                       : Español latino [CinemaniaHDD]
    Language                    : Spanish
    Service kind                : Complete Main
    Default                     : Yes
    Forced                      : No
    Encoded date                : UTC 2018-06-01 16:21:26
    Statistics Tags Issue       : mkvmerge v11.0.0 ('Alive') 64bit 2019-02-09 13:49:58 / mkvmerge v11.0.0 ('Alive') 64bit 2019-02-09 13:49:58 / UTC 2018-06-01 16:22:26
    FromStats_BitRate           : 128000
    FromStats_Duration          : 00:43:16.768000000
    FromStats_FrameCount        : 81149
    FromStats_StreamSize        : 41548288

    Audio #2
    ID                          : 3
    Format                      : AC-3
    Format/Info                 : Audio Coding 3
    Commercial name             : Dolby Digital
    Codec ID                    : A_AC3
    Duration                    : 43 min 17 s
    Bit rate mode               : Constant
    Bit rate                    : 384 kb/s
    Channel(s)                  : 6 channels
    Channel layout              : L R C LFE Ls Rs
    Sampling rate               : 48.0 kHz
    Frame rate                  : 31.250 FPS (1536 SPF)
    Bit depth                   : 16 bits
    Compression mode            : Lossy
    Stream size                 : 119 MiB (5%)
    Title                       : Inglés [CinemaniaHDD]
    Language                    : English
    Service kind                : Complete Main
    Default                     : No
    Forced                      : No
    Encoded date                : UTC 2018-06-01 16:22:26
    Statistics Tags Issue       : mkvmerge v11.0.0 ('Alive') 64bit 2019-02-09 13:49:58 / mkvmerge v11.0.0 ('Alive') 64bit 2019-02-09 13:49:58 / UTC 2018-06-01 16:22:26
    FromStats_BitRate           : 384000
    FromStats_Duration          : 00:43:17.024000000
    FromStats_FrameCount        : 81157
    FromStats_StreamSize        : 124657152

    Text
    ID                          : 4
    Format                      : UTF-8
    Codec ID                    : S_TEXT/UTF8
    Codec ID/Info               : UTF-8 Plain Text
    Title                       : Español latino [CinemaniaHDD]
    Language                    : Spanish
    Default                     : No
    Forced                      : No
    Statistics Tags Issue       : mkvmerge v11.0.0 ('Alive') 64bit 2019-02-09 13:49:58 / mkvmerge v11.0.0 ('Alive') 64bit 2019-02-09 13:49:58 / UTC 2018-06-01 16:22:26
    FromStats_BitRate           : 51
    FromStats_Duration          : 00:42:48.566000000
    FromStats_FrameCount        : 580
    FromStats_StreamSize        : 16651

  • Peso: 2.4 GB Aproximado por Capitulo

Sinopsis

La temporada 4 de Z Nation se estrenó el Septiembre 29, 2017.

La nueva entrega, que constará de 13 capítulos nuevos, iniciará sus nuevas tramas con un salto el tiempo, algo que nunca es una buena señal para el desarrollo de una serie. Murphy y Warren siguen con vida en Zona, esa tierra libre de zombies hecha para los ricachones multimillonarios. En cuanto al resto del grupo, están luchando junto al último de los humanos contra el Zombie Virus mutado y el “MAD-Z’s”.

Ficha técnica

Video trailer de la película

Enlaces de descarga

Rip de Bluray

Descargar Z Nation (2017) Temporada 4 NF 1080p Latino




Aportes de DPeliculasHDmega la pass es:dpeliculashdmega.org Aportes de CinemaniaHD la pass es:cinemaniahdd.com

Películas relacionadas

  • El Vacio (2018) Temporada 1 NF 1080p Latino

    2018
    El Vacio (2018) Temporada 1 NF 1080p Latino

    0.0 0h 25m 2018

    Tres adolescentes despiertan en un reino extraño lleno de portales mágicos, enigmas desconcertantes...

    Director: Vito Viscomi

    Género: Animación

    Actores: Mark Hildreth

  • Wolf Warrior 2 (2017) 1080p Latino

    2017
    Wolf Warrior 2 (2017) 1080p Latino

    0.0 2h 6m 2017

    Secuela de la película de acción exitosa "Wolf Warrior" (2015) La operación más peligrosa de las...

    Director: Wu Jing

    Género: Acción

    Actores: Yu Qian

Comentarios 0