×

¿Problemas para descargar con Mozilla, EDGE? Deshabilita la opción "Abrir vinculos en una pestaña nueva" tal como lo muestra ésta imagen.

Z Nation (2016) Temporada 3 NF WEB-DL 1080p Latino

1.145 vistas

Información de Z Nation (2016) Temporada 3 NF WEB-DL 1080p Latino

Datos de la película

  • Calidad: WEBDL
  • Audio: Español Latino AC3 5.1 Netflix - Ingles AC3 5.1 Netflix
  • Subtitulos: Español Latino SRT - Ingles SRT
  • Resolución: 1920x1080p
  • Formato: MKV
  • Codec: H.264
  • Encoder: Melkor
  • Mediainfo: Clic para Mostrar Datos Ver
  • Z Nation S03E01 (2016) NF WebDL 1080p Latino.mkv
    Format                      : Matroska
    Format version              : Version 4
    File size                   : 4.29 GiB
    Duration                    : 1 h 25 min
    Overall bit rate mode       : Variable
    Overall bit rate            : 7 173 kb/s
    Movie name                  : Z Nation S03E01 - No Mercy Part 1 No Mercy Part 2  CinemaniaHDD.Net
    Encoded date                : UTC 2023-10-29 02:41:49
    Writing application         : mkvmerge v59.0.0 ('Shining Star') 64-bit
    Writing library             : libebml v1.4.2 + libmatroska v1.6.4
    Attachments                 : CINEMANIAHD.png
    Site                        : CinemaniaHDD.Net
    Uploader                    : Melkor

    Video
    ID                          : 1
    Format                      : AVC
    Format/Info                 : Advanced Video Codec
    Format profile              : High@L4
    Format settings             : CABAC / 4 Ref Frames
    Format settings, CABAC      : Yes
    Format settings, Reference  : 4 frames
    Codec ID                    : V_MPEG4/ISO/AVC
    Duration                    : 1 h 25 min
    Bit rate mode               : Variable
    Bit rate                    : 6 403 kb/s
    Maximum bit rate            : 20.0 Mb/s
    Width                       : 1 920 pixels
    Height                      : 1 080 pixels
    Display aspect ratio        : 16:9
    Frame rate mode             : Constant
    Frame rate                  : 23.976 (24000/1001) FPS
    Color space                 : YUV
    Chroma subsampling          : 4:2:0
    Bit depth                   : 8 bits
    Scan type                   : Progressive
    Bits/(Pixel*Frame)          : 0.129
    Stream size                 : 3.83 GiB (89%)
    Title                       : WEB HD1080p [CinemaniaHDD]
    Writing library             : x264 core 148 r2727 7d026e8
    Encoding settings           : cabac=1 / ref=4 / deblock=1:0:0 / analyse=0x3:0x111 / me=umh / subme=10 / psy=1 / psy_rd=1.00:0.00 / mixed_ref=1 / me_range=120 / chroma_me=1 / trellis=2 / 8x8dct=1 / cqm=0 / deadzone=21,11 / fast_pskip=1 / chroma_qp_offset=-2 / threads=6 / lookahead_threads=1 / sliced_threads=0 / nr=0 / decimate=1 / interlaced=0 / bluray_compat=0 / stitchable=1 / constrained_intra=0 / bframes=16 / b_pyramid=2 / b_adapt=2 / b_bias=0 / direct=3 / weightb=1 / open_gop=0 / weightp=2 / keyint=240 / keyint_min=121 / scenecut=0 / intra_refresh=0 / rc_lookahead=240 / rc=crf / mbtree=1 / crf=21.0 / qcomp=0.50 / qpmin=6 / qpmax=51 / qpstep=4 / vbv_maxrate=20000 / vbv_bufsize=25000 / crf_max=0.0 / nal_hrd=vbr / filler=0 / ip_ratio=1.40 / aq=1:0.80
    Default                     : Yes
    Forced                      : No

    Audio #1
    ID                          : 2
    Format                      : AC-3
    Format/Info                 : Audio Coding 3
    Commercial name             : Dolby Digital
    Codec ID                    : A_AC3
    Duration                    : 1 h 25 min
    Bit rate mode               : Constant
    Bit rate                    : 384 kb/s
    Channel(s)                  : 6 channels
    Channel layout              : L R C LFE Ls Rs
    Sampling rate               : 48.0 kHz
    Frame rate                  : 31.250 FPS (1536 SPF)
    Compression mode            : Lossy
    Stream size                 : 235 MiB (5%)
    Title                       : Español Latino [CinemaniaHDD]
    Language                    : Spanish
    Service kind                : Complete Main
    Default                     : Yes
    Forced                      : No

    Audio #2
    ID                          : 3
    Format                      : AC-3
    Format/Info                 : Audio Coding 3
    Commercial name             : Dolby Digital
    Codec ID                    : A_AC3
    Duration                    : 1 h 25 min
    Bit rate mode               : Constant
    Bit rate                    : 384 kb/s
    Channel(s)                  : 6 channels
    Channel layout              : L R C LFE Ls Rs
    Sampling rate               : 48.0 kHz
    Frame rate                  : 31.250 FPS (1536 SPF)
    Compression mode            : Lossy
    Stream size                 : 235 MiB (5%)
    Title                       : Ingles [CinemaniaHDD]
    Language                    : English
    Service kind                : Complete Main
    Default                     : No
    Forced                      : No

    Text #1
    ID                          : 4
    Format                      : UTF-8
    Codec ID                    : S_TEXT/UTF8
    Codec ID/Info               : UTF-8 Plain Text
    Duration                    : 1 h 25 min
    Bit rate                    : 36 b/s
    Count of elements           : 681
    Stream size                 : 23.0 KiB (0%)
    Title                       : Español-SRT [CinemaniaHDD]
    Language                    : Spanish
    Default                     : No
    Forced                      : No

    Text #2
    ID                          : 5
    Format                      : UTF-8
    Codec ID                    : S_TEXT/UTF8
    Codec ID/Info               : UTF-8 Plain Text
    Duration                    : 1 h 24 min
    Bit rate                    : 45 b/s
    Count of elements           : 1136
    Stream size                 : 27.9 KiB (0%)
    Title                       : Ingles-SRT [CinemaniaHDD]
    Language                    : English
    Default                     : No
    Forced                      : No

  • Peso: 2.5 GB Aprox. C/U -- 32.1 GiB -- 14 Chapters

Sinopsis

Descargar Z Nation (2016) Temporada 3 NF WEB-DL 1080p Latino. Tres años después de que el virus zombie ha destripado el país, un equipo de héroes cotidianos deben transportar a el único sobreviviente conocido de la plaga de Nueva York a California, donde el último laboratorio en funcionamiento espera su sangre.
Temporada 3: nos sitúa tres años después de que el virus zombie se haya propagado por todo el mundo. Un equipo de héroes debe transportar al único superviviente de la plaga de Nueva York a California, donde se encuentra el último laboratorio de análisis de virus que espera analizar su sangre. Los anticuerpos que posee este único superviviente son la última esperanza del mundo para conseguir crear una vacuna que acabe con el virus zombie, pero también esconde un oscuro secreto que amenazará la vida de todos.

Ficha técnica

Video trailer de la película

Enlaces de descarga

Rip de Bluray

Descargar Z Nation (2016) Temporada 3 NF WEB-DL 1080p Latino




Aportes de DPeliculasHDmega la pass es:dpeliculashdmega.org Aportes de CinemaniaHD la pass es:cinemaniahdd.com Aportes recientes:cinemaniahdd.net

Películas relacionadas

descargar Z Nation (2016) Temporada 3 NF WEB-DL 1080p Latino WEBDL 1080p gratis, Z Nation (2016) Temporada 3 NF WEB-DL 1080p Latino WEBDL mega 1 link, Z Nation (2016) Temporada 3 NF WEB-DL 1080p Latino WEBDL serie completa, descargar Z Nation (2016) Temporada 3 NF WEB-DL 1080p Latino WEBDL gratis en mega.

Z Nation (2016) Temporada 3 NF WEB-DL 1080p Latino pelicula full hd, Z Nation (2016) Temporada 3 NF WEB-DL 1080p Latino mega latino, Z Nation (2016) Temporada 3 NF WEB-DL 1080p Latino 4k latino, Z Nation (2016) Temporada 3 NF WEB-DL 1080p Latino pelicula completa, Z Nation (2016) Temporada 3 NF WEB-DL 1080p Latino descargar gratis, descargar Z Nation (2016) Temporada 3 NF WEB-DL 1080p Latino pelicula latino, Z Nation (2016) Temporada 3 NF WEB-DL 1080p Latino 1 link mega, Z Nation (2016) Temporada 3 NF WEB-DL 1080p Latino 1 link google drive, Z Nation (2016) Temporada 3 NF WEB-DL 1080p Latino hd 1080p latino.
Comentarios 0