Z Nation (2016) Temporada 3 NF 1080p Latino

228 vistas
1 estrella2 estrellas3 estrellas4 estrellas5 estrellas (1 votos, promedio: 5,00 de 5)
Cargando…

Información de Z Nation (2016) Temporada 3 NF 1080p Latino

Datos de la película

  • Calidad: WEBDL
  • Audio: Español Latino AC3 5.1 Netflix - Ingles AC3 5.1 Netflix
  • Subtitulos: Español Latino SRT
  • Resolución: 1920x1080
  • Formato: MKV
  • Codec: H.264
  • Encoder: cinemaniahd
  • Mediainfo: Clic para Mostrar Datos Ver
  • Z Nation S03E01 NF 1080p Latino.mkv
    Format                      : Matroska
    Format version              : Version 4
    File size                   : 4.37 GiB
    Duration                    : 1 h 25 min
    Overall bit rate mode       : Variable
    Overall bit rate            : 7 300 kb/s
    Movie name                  : Z Nation S03E01
    Encoded date                : UTC 2019-02-09 04:31:43 / UTC 2018-03-28 23:18:48
    Writing application         : mkvmerge v11.0.0 ('Alive') 64bit
    Writing library             : libebml v1.3.4 + libmatroska v1.4.5 / Lavf58.0.0

    Video
    ID                          : 1
    Format                      : AVC
    Format/Info                 : Advanced Video Codec
    Format profile              : [email protected]
    Format settings             : CABAC / 4 Ref Frames
    Format settings, CABAC      : Yes
    Format settings, ReFrames   : 4 frames
    Codec ID                    : V_MPEG4/ISO/AVC
    Duration                    : 1 h 25 min
    Bit rate mode               : Variable
    Bit rate                    : 6 387 kb/s
    Maximum bit rate            : 20.0 Mb/s
    Width                       : 1 920 pixels
    Height                      : 1 080 pixels
    Display aspect ratio        : 16:9
    Frame rate mode             : Constant
    Frame rate                  : 23.976 (24000/1001) FPS
    Color space                 : YUV
    Chroma subsampling          : 4:2:0
    Bit depth                   : 8 bits
    Scan type                   : Progressive
    Bits/(Pixel*Frame)          : 0.128
    Stream size                 : 3.82 GiB (87%)
    Title                       : CinemaniaHDD
    Writing library             : x264 core 148 r2715 7e75228
    Encoding settings           : cabac=1 / ref=4 / deblock=1:0:0 / analyse=0x3:0x111 / me=umh / subme=10 / psy=1 / psy_rd=1.00:0.00 / mixed_ref=1 / me_range=120 / chroma_me=1 / trellis=2 / 8x8dct=1 / cqm=0 / deadzone=21,11 / fast_pskip=1 / chroma_qp_offset=-2 / threads=8 / lookahead_threads=2 / sliced_threads=0 / nr=0 / decimate=1 / interlaced=0 / bluray_compat=0 / stitchable=1 / constrained_intra=0 / bframes=16 / b_pyramid=2 / b_adapt=2 / b_bias=0 / direct=3 / weightb=1 / open_gop=0 / weightp=2 / keyint=240 / keyint_min=121 / scenecut=0 / intra_refresh=0 / rc_lookahead=240 / rc=crf / mbtree=1 / crf=16.0 / qcomp=0.50 / qpmin=6 / qpmax=51 / qpstep=4 / vbv_maxrate=20000 / vbv_bufsize=25000 / crf_max=0.0 / nal_hrd=vbr / filler=0 / ip_ratio=1.40 / aq=1:0.80
    Default                     : Yes
    Forced                      : No
    Statistics Tags Issue       : mkvmerge v11.0.0 ('Alive') 64bit 2019-02-09 04:31:43 / mkvmerge v11.0.0 ('Alive') 64bit 2019-02-09 04:31:43 / UTC 2018-03-28 23:18:48
    FromStats_BitRate           : 6530136
    FromStats_Duration          : 01:25:39.176000000
    FromStats_FrameCount        : 123217
    FromStats_StreamSize        : 4194939836

    Audio #1
    ID                          : 2
    Format                      : AC-3
    Format/Info                 : Audio Coding 3
    Commercial name             : Dolby Digital
    Codec ID                    : A_AC3
    Duration                    : 1 h 25 min
    Bit rate mode               : Constant
    Bit rate                    : 384 kb/s
    Channel(s)                  : 6 channels
    Channel layout              : L R C LFE Ls Rs
    Sampling rate               : 48.0 kHz
    Frame rate                  : 31.250 FPS (1536 SPF)
    Bit depth                   : 16 bits
    Compression mode            : Lossy
    Stream size                 : 235 MiB (5%)
    Title                       : Español latino [CinemaniaHDD]
    Language                    : Spanish
    Service kind                : Complete Main
    Default                     : Yes
    Forced                      : No
    Encoded date                : UTC 2018-03-28 23:21:50
    Statistics Tags Issue       : mkvmerge v11.0.0 ('Alive') 64bit 2019-02-09 04:31:43 / mkvmerge v11.0.0 ('Alive') 64bit 2019-02-09 04:31:43 / UTC 2018-03-28 23:18:48
    FromStats_BitRate           : 384000
    FromStats_Duration          : 01:25:39.488000000
    FromStats_FrameCount        : 160609
    FromStats_StreamSize        : 246695424

    Audio #2
    ID                          : 3
    Format                      : AC-3
    Format/Info                 : Audio Coding 3
    Commercial name             : Dolby Digital
    Codec ID                    : A_AC3
    Duration                    : 1 h 25 min
    Bit rate mode               : Constant
    Bit rate                    : 384 kb/s
    Channel(s)                  : 6 channels
    Channel layout              : L R C LFE Ls Rs
    Sampling rate               : 48.0 kHz
    Frame rate                  : 31.250 FPS (1536 SPF)
    Bit depth                   : 16 bits
    Compression mode            : Lossy
    Stream size                 : 235 MiB (5%)
    Title                       : Inglés [CinemaniaHDD]
    Language                    : English
    Service kind                : Complete Main
    Default                     : No
    Forced                      : No
    Encoded date                : UTC 2018-03-28 23:18:48
    Statistics Tags Issue       : mkvmerge v11.0.0 ('Alive') 64bit 2019-02-09 04:31:43 / mkvmerge v11.0.0 ('Alive') 64bit 2019-02-09 04:31:43 / UTC 2018-03-28 23:18:48
    FromStats_BitRate           : 384000
    FromStats_Duration          : 01:25:39.488000000
    FromStats_FrameCount        : 160609
    FromStats_StreamSize        : 246695424

    Text
    ID                          : 4
    Format                      : UTF-8
    Codec ID                    : S_TEXT/UTF8
    Codec ID/Info               : UTF-8 Plain Text
    Title                       : Español latino [CinemaniaHDD]
    Language                    : Spanish
    Default                     : No
    Forced                      : No
    Statistics Tags Issue       : mkvmerge v11.0.0 ('Alive') 64bit 2019-02-09 04:31:43 / mkvmerge v11.0.0 ('Alive') 64bit 2019-02-09 04:31:43 / UTC 2018-03-28 23:18:48
    FromStats_BitRate           : 36
    FromStats_Duration          : 01:25:33.045000000
    FromStats_FrameCount        : 681
    FromStats_StreamSize        : 23556

  • Peso: 2 GB Aproximado Por Capitulo

Sinopsis

La temporada 3 de Z Nation se estrenó el Septiembre 16, 2016.

Z Nation Temporada 3: nos sitúa tres años después de que el virus zombie se haya propagado por todo el mundo. Un equipo de héroes debe transportar al único superviviente de la plaga de Nueva York a California, donde se encuentra el último laboratorio de análisis de virus que espera analizar su sangre. Los anticuerpos que posee este único superviviente son la última esperanza del mundo para conseguir crear una vacuna que acabe con el virus zombie, pero también esconde un oscuro secreto que amenazará la vida de todos.

Con la supervivencia de la humanidad en juego, el grupo se embarca en esta aventura en la que tendrán que aprender a trabajar en equipo, enfrentarse a difíciles dilemas morales y lo más importante, sobrevivir al apocalípsis zombie.

Ficha técnica

Video trailer de la película

Enlaces de descarga

Rip de Bluray

Descargar Z Nation (2016) Temporada 3 NF 1080p Latino




Aportes de DPeliculasHDmega la pass es:dpeliculashdmega.org Aportes de CinemaniaHD la pass es:cinemaniahdd.com

Películas relacionadas

  • El Vacio (2018) Temporada 1 NF 1080p Latino

    2018
    El Vacio (2018) Temporada 1 NF 1080p Latino

    0.0 0h 25m 2018

    Tres adolescentes despiertan en un reino extraño lleno de portales mágicos, enigmas desconcertantes...

    Director: Vito Viscomi

    Género: Animación

    Actores: Mark Hildreth

  • Wolf Warrior 2 (2017) 1080p Latino

    2017
    Wolf Warrior 2 (2017) 1080p Latino

    0.0 2h 6m 2017

    Secuela de la película de acción exitosa "Wolf Warrior" (2015) La operación más peligrosa de las...

    Director: Wu Jing

    Género: Acción

    Actores: Yu Qian

Comentarios 0