×

¿Problemas para descargar con Mozilla, EDGE? Deshabilita la opción "Abrir vinculos en una pestaña nueva" tal como lo muestra ésta imagen.

Z Nation (2015) Temporada 2 NF WEB-DL 1080p Latino

926 vistas

Información de Z Nation (2015) Temporada 2 NF WEB-DL 1080p Latino

Datos de la película

  • Calidad: WEBDL
  • Audio: Español Latino AC3 5.1 Netflix - Ingles AC3 5.1 Netflix
  • Subtitulos: Español Latino SRT - Ingles SRT
  • Resolución: 1920x1080p
  • Formato: MKV
  • Codec: H.264
  • Encoder: Melkor
  • Mediainfo: Clic para Mostrar Datos Ver
  • Z Nation S02E01 (2015) NF WebDL 1080p Latino.mkv
    Format                      : Matroska
    Format version              : Version 4
    File size                   : 1.73 GiB
    Duration                    : 43 min 9 s
    Overall bit rate mode       : Variable
    Overall bit rate            : 5 731 kb/s
    Movie name                  : Z Nation S02E01 - The Murphy  CinemaniaHDD.Net
    Encoded date                : UTC 2023-10-29 02:05:24
    Writing application         : mkvmerge v59.0.0 ('Shining Star') 64-bit
    Writing library             : libebml v1.4.2 + libmatroska v1.6.4
    Attachments                 : CINEMANIAHD.png
    Site                        : CinemaniaHDD.Net
    Uploader                    : Melkor

    Video
    ID                          : 1
    Format                      : AVC
    Format/Info                 : Advanced Video Codec
    Format profile              : Main@L4
    Format settings             : CABAC / 3 Ref Frames
    Format settings, CABAC      : Yes
    Format settings, Reference  : 3 frames
    Codec ID                    : V_MPEG4/ISO/AVC
    Duration                    : 43 min 9 s
    Bit rate mode               : Variable
    Bit rate                    : 4 734 kb/s
    Maximum bit rate            : 6 660 kb/s
    Width                       : 1 920 pixels
    Height                      : 1 080 pixels
    Display aspect ratio        : 16:9
    Frame rate mode             : Constant
    Frame rate                  : 23.976 (24000/1001) FPS
    Color space                 : YUV
    Chroma subsampling          : 4:2:0
    Bit depth                   : 8 bits
    Scan type                   : Progressive
    Bits/(Pixel*Frame)          : 0.095
    Stream size                 : 1.50 GiB (87%)
    Title                       : WEB HD1080p [CinemaniaHDD]
    Writing library             : x264 core 148 r2727 7d026e8
    Encoding settings           : cabac=1 / ref=3 / deblock=1:0:0 / analyse=0x1:0x111 / me=umh / subme=10 / psy=1 / psy_rd=1.00:0.00 / mixed_ref=1 / me_range=24 / chroma_me=1 / trellis=2 / 8x8dct=0 / cqm=0 / deadzone=21,11 / fast_pskip=1 / chroma_qp_offset=-2 / threads=6 / lookahead_threads=1 / sliced_threads=0 / nr=0 / decimate=1 / interlaced=0 / bluray_compat=0 / stitchable=1 / constrained_intra=0 / bframes=2 / b_pyramid=0 / b_adapt=2 / b_bias=0 / direct=3 / weightb=1 / open_gop=0 / weightp=2 / keyint=240 / keyint_min=121 / scenecut=0 / intra_refresh=0 / rc_lookahead=48 / rc=2pass / mbtree=1 / bitrate=4734 / ratetol=1.0 / qcomp=0.50 / qpmin=6 / qpmax=51 / qpstep=4 / cplxblur=20.0 / qblur=0.5 / vbv_maxrate=6660 / vbv_bufsize=11100 / nal_hrd=vbr / filler=0 / ip_ratio=1.40 / aq=1:1.00
    Default                     : Yes
    Forced                      : No

    Audio #1
    ID                          : 2
    Format                      : AC-3
    Format/Info                 : Audio Coding 3
    Commercial name             : Dolby Digital
    Codec ID                    : A_AC3
    Duration                    : 43 min 9 s
    Bit rate mode               : Constant
    Bit rate                    : 384 kb/s
    Channel(s)                  : 6 channels
    Channel layout              : L R C LFE Ls Rs
    Sampling rate               : 48.0 kHz
    Frame rate                  : 31.250 FPS (1536 SPF)
    Compression mode            : Lossy
    Stream size                 : 119 MiB (7%)
    Title                       : Español Latino [CinemaniaHDD]
    Language                    : Spanish
    Service kind                : Complete Main
    Default                     : Yes
    Forced                      : No

    Audio #2
    ID                          : 3
    Format                      : AC-3
    Format/Info                 : Audio Coding 3
    Commercial name             : Dolby Digital
    Codec ID                    : A_AC3
    Duration                    : 43 min 9 s
    Bit rate mode               : Constant
    Bit rate                    : 384 kb/s
    Channel(s)                  : 6 channels
    Channel layout              : L R C LFE Ls Rs
    Sampling rate               : 48.0 kHz
    Frame rate                  : 31.250 FPS (1536 SPF)
    Compression mode            : Lossy
    Stream size                 : 119 MiB (7%)
    Title                       : Ingles [CinemaniaHDD]
    Language                    : English
    Service kind                : Complete Main
    Default                     : No
    Forced                      : No

    Text #1
    ID                          : 4
    Format                      : UTF-8
    Codec ID                    : S_TEXT/UTF8
    Codec ID/Info               : UTF-8 Plain Text
    Duration                    : 42 min 40 s
    Bit rate                    : 38 b/s
    Count of elements           : 405
    Stream size                 : 11.9 KiB (0%)
    Title                       : Español-SRT [CinemaniaHDD]
    Language                    : Spanish
    Default                     : No
    Forced                      : No

    Text #2
    ID                          : 5
    Format                      : UTF-8
    Codec ID                    : S_TEXT/UTF8
    Codec ID/Info               : UTF-8 Plain Text
    Duration                    : 42 min 47 s
    Bit rate                    : 51 b/s
    Count of elements           : 678
    Stream size                 : 16.2 KiB (0%)
    Title                       : Ingles-SRT [CinemaniaHDD]
    Language                    : English
    Default                     : No
    Forced                      : No

  • Peso: 1.9 GiB Aprox C/U -- 27.1 GiB -- 15 Chapters

Sinopsis

Descargar Z Nation (2015) Temporada 2 NF WEB-DL 1080p Latino. Tres años después de que el virus zombie ha destripado el país, un equipo de héroes cotidianos deben transportar a el único sobreviviente conocido de la plaga de Nueva York a California, donde el último laboratorio en funcionamiento espera su sangre.
Temporada 2: En Z Nation Temporada 2 nos encontramos justo tres años después de que los zombies se propagaran por todo el mundo. Apenas quedan reductos de humanos que sobreviven como pueden. Un grupo de supervivientes con experiencia militar tendrán que iniciar un largo viaje para llevar al último superviviente de los zombies hasta el último laboratorio que sigue funcionando y donde podrían encontrar la clave para frenar este plaga

Ficha técnica

Video trailer de la película

Enlaces de descarga

Rip de Bluray

Descargar Z Nation (2015) Temporada 2 NF WEB-DL 1080p Latino




Aportes de DPeliculasHDmega la pass es:dpeliculashdmega.org Aportes de CinemaniaHD la pass es:cinemaniahdd.com Aportes recientes:cinemaniahdd.net

Películas relacionadas

descargar Z Nation (2015) Temporada 2 NF WEB-DL 1080p Latino WEBDL 1080p gratis, Z Nation (2015) Temporada 2 NF WEB-DL 1080p Latino WEBDL mega 1 link, Z Nation (2015) Temporada 2 NF WEB-DL 1080p Latino WEBDL serie completa, descargar Z Nation (2015) Temporada 2 NF WEB-DL 1080p Latino WEBDL gratis en mega.

Z Nation (2015) Temporada 2 NF WEB-DL 1080p Latino pelicula full hd, Z Nation (2015) Temporada 2 NF WEB-DL 1080p Latino mega latino, Z Nation (2015) Temporada 2 NF WEB-DL 1080p Latino 4k latino, Z Nation (2015) Temporada 2 NF WEB-DL 1080p Latino pelicula completa, Z Nation (2015) Temporada 2 NF WEB-DL 1080p Latino descargar gratis, descargar Z Nation (2015) Temporada 2 NF WEB-DL 1080p Latino pelicula latino, Z Nation (2015) Temporada 2 NF WEB-DL 1080p Latino 1 link mega, Z Nation (2015) Temporada 2 NF WEB-DL 1080p Latino 1 link google drive, Z Nation (2015) Temporada 2 NF WEB-DL 1080p Latino hd 1080p latino.
Comentarios 0