×

¿Problemas para descargar con Mozilla, EDGE? Deshabilita la opción "Abrir vinculos en una pestaña nueva" tal como lo muestra ésta imagen.

Z Nation (2015) Temporada 2 NF 1080p Latino

606 vistas

Información de Z Nation (2015) Temporada 2 NF 1080p Latino

Datos de la película

  • Calidad: WEBDL
  • Audio: Español Latino AC3 5.1 Netflix - Ingles AC3 5.1 Netflix
  • Subtitulos: Español Latino SRT- FORZADOS SRT
  • Resolución: 1920x1080
  • Formato: MKV
  • Codec: H.264
  • Encoder: cinemaniahd
  • Mediainfo: Clic para Mostrar Datos Ver
  • Z Nation S02E01 NF 1080p Latino.mkv
    Format                      : Matroska
    Format version              : Version 4
    File size                   : 2.48 GiB
    Duration                    : 43 min 10 s
    Overall bit rate mode       : Variable
    Overall bit rate            : 8 234 kb/s
    Movie name                  : Z Nation S02E01
    Encoded date                : UTC 2019-02-10 02:45:14 / UTC 2017-04-17 23:57:28
    Writing application         : mkvmerge v30.1.0 ('Forever And More') 64-bit
    Writing library             : libebml v1.3.6 + libmatroska v1.4.9 / Lavf58.0.0

    Video
    ID                          : 1
    Format                      : AVC
    Format/Info                 : Advanced Video Codec
    Format profile              : Main@L4
    Format settings             : CABAC / 3 Ref Frames
    Format settings, CABAC      : Yes
    Format settings, ReFrames   : 3 frames
    Codec ID                    : V_MPEG4/ISO/AVC
    Duration                    : 43 min 10 s
    Bit rate mode               : Variable
    Bit rate                    : 7 500 kb/s
    Maximum bit rate            : 11.2 Mb/s
    Width                       : 1 920 pixels
    Height                      : 1 080 pixels
    Display aspect ratio        : 16:9
    Frame rate mode             : Constant
    Frame rate                  : 23.976 (24000/1001) FPS
    Color space                 : YUV
    Chroma subsampling          : 4:2:0
    Bit depth                   : 8 bits
    Scan type                   : Progressive
    Bits/(Pixel*Frame)          : 0.151
    Stream size                 : 2.20 GiB (89%)
    Title                       : CinemaniaHDD
    Writing library             : x264 core 118
    Encoding settings           : cabac=1 / ref=3 / deblock=1:0:0 / analyse=0x1:0x111 / me=umh / subme=10 / psy=1 / psy_rd=1.00:0.00 / mixed_ref=1 / me_range=24 / chroma_me=1 / trellis=2 / 8x8dct=0 / cqm=0 / deadzone=21,11 / fast_pskip=1 / chroma_qp_offset=-2 / threads=8 / sliced_threads=0 / nr=0 / decimate=1 / interlaced=0 / bluray_compat=0 / constrained_intra=0 / bframes=2 / b_pyramid=0 / b_adapt=2 / b_bias=0 / direct=3 / weightb=1 / open_gop=0 / weightp=2 / keyint=48 / keyint_min=25 / scenecut=0 / intra_refresh=0 / rc_lookahead=0 / rc=2pass / mbtree=1 / bitrate=7500 / ratetol=1.0 / qcomp=0.50 / qpmin=6 / qpmax=51 / qpstep=4 / cplxblur=20.0 / qblur=0.5 / vbv_maxrate=11250 / vbv_bufsize=15000 / nal_hrd=vbr / ip_ratio=1.40 / aq=1:1.00
    Default                     : Yes
    Forced                      : No
    Statistics Tags Issue       : mkvmerge v30.1.0 ('Forever And More') 64-bit 2019-02-10 02:45:14 / mkvmerge v30.1.0 ('Forever And More') 64-bit 2019-02-10 02:45:14 / UTC 2017-04-17 23:57:28
    FromStats_BitRate           : 7464545
    FromStats_Duration          : 00:43:10.630000000
    FromStats_FrameCount        : 62113
    FromStats_StreamSize        : 2417234543

    Audio #1
    ID                          : 2
    Format                      : AC-3
    Format/Info                 : Audio Coding 3
    Commercial name             : Dolby Digital
    Codec ID                    : A_AC3
    Duration                    : 43 min 10 s
    Bit rate mode               : Constant
    Bit rate                    : 384 kb/s
    Channel(s)                  : 6 channels
    Channel layout              : L R C LFE Ls Rs
    Sampling rate               : 48.0 kHz
    Frame rate                  : 31.250 FPS (1536 SPF)
    Bit depth                   : 16 bits
    Compression mode            : Lossy
    Stream size                 : 119 MiB (5%)
    Title                       : Español latino [CinemaniaHDD]
    Language                    : Spanish
    Service kind                : Complete Main
    Default                     : No
    Forced                      : No
    Encoded date                : UTC 2017-04-17 23:57:28
    Statistics Tags Issue       : mkvmerge v30.1.0 ('Forever And More') 64-bit 2019-02-10 02:45:14 / mkvmerge v30.1.0 ('Forever And More') 64-bit 2019-02-10 02:45:14 / UTC 2017-04-17 23:57:28
    FromStats_BitRate           : 384000
    FromStats_Duration          : 00:43:10.880000000
    FromStats_FrameCount        : 80965
    FromStats_StreamSize        : 124362240

    Audio #2
    ID                          : 3
    Format                      : AC-3
    Format/Info                 : Audio Coding 3
    Commercial name             : Dolby Digital
    Codec ID                    : A_AC3
    Duration                    : 43 min 10 s
    Bit rate mode               : Constant
    Bit rate                    : 384 kb/s
    Channel(s)                  : 6 channels
    Channel layout              : L R C LFE Ls Rs
    Sampling rate               : 48.0 kHz
    Frame rate                  : 31.250 FPS (1536 SPF)
    Bit depth                   : 16 bits
    Compression mode            : Lossy
    Stream size                 : 119 MiB (5%)
    Title                       : Inglés [CinemaniaHDD]
    Language                    : English
    Service kind                : Complete Main
    Default                     : Yes
    Forced                      : No
    Encoded date                : UTC 2017-04-18 00:10:13
    Statistics Tags Issue       : mkvmerge v30.1.0 ('Forever And More') 64-bit 2019-02-10 02:45:14 / mkvmerge v30.1.0 ('Forever And More') 64-bit 2019-02-10 02:45:14 / UTC 2017-04-17 23:57:28
    FromStats_BitRate           : 384000
    FromStats_Duration          : 00:43:10.880000000
    FromStats_FrameCount        : 80965
    FromStats_StreamSize        : 124362240

    Text
    ID                          : 4
    Format                      : UTF-8
    Codec ID                    : S_TEXT/UTF8
    Codec ID/Info               : UTF-8 Plain Text
    Title                       : Español latino [CinemaniaHDD]
    Language                    : Spanish
    Default                     : No
    Forced                      : No
    Statistics Tags Issue       : mkvmerge v30.1.0 ('Forever And More') 64-bit 2019-02-10 02:45:14 / mkvmerge v30.1.0 ('Forever And More') 64-bit 2019-02-10 02:45:14 / UTC 2017-04-17 23:57:28
    FromStats_BitRate           : 38
    FromStats_Duration          : 00:42:40.558000000
    FromStats_FrameCount        : 405
    FromStats_StreamSize        : 12221

  • Peso: 2.4 GB Aproximado Por Capitulo

Sinopsis

En Z Nation Temporada 2 nos encontramos justo tres años después de que los zombies se propagaran por todo el mundo. Apenas quedan reductos de humanos que sobreviven como pueden. Un grupo de supervivientes con experiencia militar tendrán que iniciar un largo viaje para llevar al último superviviente de los zombies hasta el último laboratorio que sigue funcionando y donde podrían encontrar la clave para frenar este plaga

Ficha técnica

Video trailer de la película

Enlaces de descarga

Rip de Bluray

Descargar Z Nation (2015) Temporada 2 NF 1080p Latino




Aportes de DPeliculasHDmega la pass es:dpeliculashdmega.org Aportes de CinemaniaHD la pass es:cinemaniahdd.com

Películas relacionadas

Z Nation (2015) Temporada 2 NF 1080p Latino pelicula full hd, Z Nation (2015) Temporada 2 NF 1080p Latino mega latino, Z Nation (2015) Temporada 2 NF 1080p Latino 4k latino, Z Nation (2015) Temporada 2 NF 1080p Latino pelicula completa, Z Nation (2015) Temporada 2 NF 1080p Latino descargar gratis, descargar Z Nation (2015) Temporada 2 NF 1080p Latino pelicula latino, Z Nation (2015) Temporada 2 NF 1080p Latino 1 link mega, Z Nation (2015) Temporada 2 NF 1080p Latino 1 link google drive, Z Nation (2015) Temporada 2 NF 1080p Latino hd 1080p latino.
Comentarios 0