×

¿Problemas para descargar con Mozilla, EDGE? Deshabilita la opción "Abrir vinculos en una pestaña nueva" tal como lo muestra ésta imagen.

Z Nation (2014) Temporada 1 NF WEB-DL 1080p Latino

1.263 vistas

Información de Z Nation (2014) Temporada 1 NF WEB-DL 1080p Latino

Datos de la película

  • Calidad: WEBDL
  • Audio: Se especifica abajo de la Sinopsis
  • Subtitulos: Español Latino SRT - Ingles SRT
  • Resolución: 1920x1080p
  • Formato: MKV
  • Codec: H.264
  • Encoder: Melkor
  • Mediainfo: Clic para Mostrar Datos Ver
  • Z Nation S01E01 (2014) NF WebDL 1080p Latino.mkv
    Format                      : Matroska
    Format version              : Version 4
    File size                   : 2.41 GiB
    Duration                    : 42 min 59 s
    Overall bit rate mode       : Variable
    Overall bit rate            : 8 029 kb/s
    Movie name                  : Z Nation S01E01 - Puppies and Kittens  CinemaniaHDD.Net
    Encoded date                : UTC 2023-10-29 01:10:07
    Writing application         : mkvmerge v59.0.0 ('Shining Star') 64-bit
    Writing library             : libebml v1.4.2 + libmatroska v1.6.4
    Attachments                 : CINEMANIAHD.png
    Site                        : CinemaniaHDD.Net
    Uploader                    : Melkor

    Video
    ID                          : 1
    Format                      : AVC
    Format/Info                 : Advanced Video Codec
    Format profile              : Main@L4
    Format settings             : CABAC / 3 Ref Frames
    Format settings, CABAC      : Yes
    Format settings, Reference  : 3 frames
    Codec ID                    : V_MPEG4/ISO/AVC
    Duration                    : 42 min 59 s
    Bit rate mode               : Variable
    Bit rate                    : 7 500 kb/s
    Maximum bit rate            : 11.2 Mb/s
    Width                       : 1 920 pixels
    Height                      : 1 080 pixels
    Display aspect ratio        : 16:9
    Frame rate mode             : Constant
    Frame rate                  : 23.976 (24000/1001) FPS
    Color space                 : YUV
    Chroma subsampling          : 4:2:0
    Bit depth                   : 8 bits
    Scan type                   : Progressive
    Bits/(Pixel*Frame)          : 0.151
    Stream size                 : 2.18 GiB (90%)
    Title                       : WEB HD1080p [CinemaniaHDD]
    Writing library             : x264 core 148 r2727 7d026e8
    Encoding settings           : cabac=1 / ref=3 / deblock=1:0:0 / analyse=0x1:0x111 / me=umh / subme=10 / psy=1 / psy_rd=1.00:0.00 / mixed_ref=1 / me_range=24 / chroma_me=1 / trellis=2 / 8x8dct=0 / cqm=0 / deadzone=21,11 / fast_pskip=1 / chroma_qp_offset=-2 / threads=8 / lookahead_threads=1 / sliced_threads=0 / nr=0 / decimate=1 / interlaced=0 / bluray_compat=0 / stitchable=1 / constrained_intra=0 / bframes=2 / b_pyramid=0 / b_adapt=2 / b_bias=0 / direct=3 / weightb=1 / open_gop=0 / weightp=2 / keyint=250 / keyint_min=23 / scenecut=0 / intra_refresh=0 / rc_lookahead=48 / rc=2pass / mbtree=1 / bitrate=7500 / ratetol=1.0 / qcomp=0.50 / qpmin=6 / qpmax=51 / qpstep=4 / cplxblur=20.0 / qblur=0.5 / vbv_maxrate=11250 / vbv_bufsize=15000 / nal_hrd=vbr / filler=0 / ip_ratio=1.40 / aq=1:1.00
    Default                     : Yes
    Forced                      : Yes

    Audio #1
    ID                          : 2
    Format                      : AAC LC SBR
    Format/Info                 : Advanced Audio Codec Low Complexity with Spectral Band Replication
    Commercial name             : HE-AAC
    Format settings             : Explicit
    Codec ID                    : A_AAC-2
    Duration                    : 42 min 59 s
    Bit rate                    : 128 kb/s
    Channel(s)                  : 2 channels
    Channel layout              : L R
    Sampling rate               : 48.0 kHz
    Frame rate                  : 23.438 FPS (2048 SPF)
    Compression mode            : Lossy
    Stream size                 : 39.4 MiB (2%)
    Title                       : Español Latino [CinemaniaHDD]
    Language                    : Spanish
    Default                     : Yes
    Forced                      : Yes

    Audio #2
    ID                          : 3
    Format                      : E-AC-3
    Format/Info                 : Enhanced AC-3
    Commercial name             : Dolby Digital Plus
    Codec ID                    : A_EAC3
    Duration                    : 42 min 59 s
    Bit rate mode               : Constant
    Bit rate                    : 640 kb/s
    Channel(s)                  : 6 channels
    Channel layout              : L R C LFE Ls Rs
    Sampling rate               : 48.0 kHz
    Frame rate                  : 31.250 FPS (1536 SPF)
    Compression mode            : Lossy
    Stream size                 : 197 MiB (8%)
    Title                       : Ingles [CinemaniaHDD]
    Language                    : English
    Service kind                : Complete Main
    Default                     : No
    Forced                      : No

    Text #1
    ID                          : 4
    Format                      : UTF-8
    Codec ID                    : S_TEXT/UTF8
    Codec ID/Info               : UTF-8 Plain Text
    Duration                    : 42 min 3 s
    Bit rate                    : 57 b/s
    Count of elements           : 578
    Stream size                 : 17.9 KiB (0%)
    Title                       : Español-SRT [CinemaniaHDD]
    Language                    : Spanish
    Default                     : No
    Forced                      : No

    Text #2
    ID                          : 5
    Format                      : UTF-8
    Codec ID                    : S_TEXT/UTF8
    Codec ID/Info               : UTF-8 Plain Text
    Duration                    : 42 min 33 s
    Bit rate                    : 73 b/s
    Count of elements           : 828
    Stream size                 : 23.0 KiB (0%)
    Title                       : Ingles-SRT [CinemaniaHDD]
    Language                    : English
    Default                     : No
    Forced                      : No

  • Peso: 2.4 GiB Aprox C/U -- 30.7 GiB -- 13 Chapters

Sinopsis

Descargar Z Nation (2014) Temporada 1 NF WEB-DL 1080p Latino. Tres años después de que el virus zombie ha destripado el país, un equipo de héroes cotidianos deben transportar a el único sobreviviente conocido de la plaga de Nueva York a California, donde el último laboratorio en funcionamiento espera su sangre.
Temporada 1: Tres años después de que un virus zombi devastara los Estados Unidos, un grupo de personas debe transportar al único superviviente conocido inmune al virus a través de casi cinco mil kilómetros desde Nueva York hasta California, donde el último laboratorio funcional especializado para el tratamiento de virus espera recibir su sangre. Sus anticuerpos son la última esperanza en el planeta para encontrar una vacuna. Sin embargo, el superviviente esconde un oscuro secreto que supondrá una amenaza para todos ellos.

Español  Latino AAC 2.0 NF – Ingles EAC3 5.1 NF

Ficha técnica

Video trailer de la película

Enlaces de descarga

Rip de Bluray

Descargar Z Nation (2014) Temporada 1 NF WEB-DL 1080p Latino




Aportes de DPeliculasHDmega la pass es:dpeliculashdmega.org Aportes de CinemaniaHD la pass es:cinemaniahdd.com Aportes recientes:cinemaniahdd.net

Películas relacionadas

descargar Z Nation (2014) Temporada 1 NF WEB-DL 1080p Latino WEBDL 1080p gratis, Z Nation (2014) Temporada 1 NF WEB-DL 1080p Latino WEBDL mega 1 link, Z Nation (2014) Temporada 1 NF WEB-DL 1080p Latino WEBDL serie completa, descargar Z Nation (2014) Temporada 1 NF WEB-DL 1080p Latino WEBDL gratis en mega.

Z Nation (2014) Temporada 1 NF WEB-DL 1080p Latino pelicula full hd, Z Nation (2014) Temporada 1 NF WEB-DL 1080p Latino mega latino, Z Nation (2014) Temporada 1 NF WEB-DL 1080p Latino 4k latino, Z Nation (2014) Temporada 1 NF WEB-DL 1080p Latino pelicula completa, Z Nation (2014) Temporada 1 NF WEB-DL 1080p Latino descargar gratis, descargar Z Nation (2014) Temporada 1 NF WEB-DL 1080p Latino pelicula latino, Z Nation (2014) Temporada 1 NF WEB-DL 1080p Latino 1 link mega, Z Nation (2014) Temporada 1 NF WEB-DL 1080p Latino 1 link google drive, Z Nation (2014) Temporada 1 NF WEB-DL 1080p Latino hd 1080p latino.
Comentarios 0