×

¿Problemas para descargar con Mozilla, EDGE? Deshabilita la opción "Abrir vinculos en una pestaña nueva" tal como lo muestra ésta imagen.

Z Nation (2018) NF Temporada 5 WEB-DL Latino

1.016 vistas

Información de Z Nation (2018) NF Temporada 5 WEB-DL Latino

Datos de la película

  • Calidad: WEBDL
  • Audio: Se especifica abajo de la Sinopsis
  • Subtitulos: Español Latino SRT - Ingles SRT
  • Resolución: 1920x1080
  • Formato: MKV
  • Codec: H.264
  • Encoder: CinemaniaHDD
  • Mediainfo: Clic para Mostrar Datos Ver
  • Z Nation S05E01 NF 1080p Latino.mkv
    Format                      : Matroska
    Format version              : Version 4
    File size                   : 2.30 GiB
    Duration                    : 43 min 12 s
    Overall bit rate mode       : Variable
    Overall bit rate            : 7 610 kb/s
    Movie name                  : Z Nation S05E01
    Encoded date                : UTC 2019-01-27 08:34:03 / UTC 2018-12-05 02:32:08
    Writing application         : mkvmerge v11.0.0 ('Alive') 64bit
    Writing library             : libebml v1.3.4 + libmatroska v1.4.5 / Lavf58.0.0

    Video
    ID                          : 1
    Format                      : AVC
    Format/Info                 : Advanced Video Codec
    Format profile              : Main@L4
    Format settings             : CABAC / 3 Ref Frames
    Format settings, CABAC      : Yes
    Format settings, ReFrames   : 3 frames
    Codec ID                    : V_MPEG4/ISO/AVC
    Duration                    : 43 min 12 s
    Bit rate mode               : Variable
    Bit rate                    : 7 500 kb/s
    Maximum bit rate            : 11.2 Mb/s
    Width                       : 1 920 pixels
    Height                      : 1 080 pixels
    Display aspect ratio        : 16:9
    Frame rate mode             : Constant
    Frame rate                  : 23.976 (24000/1001) FPS
    Color space                 : YUV
    Chroma subsampling          : 4:2:0
    Bit depth                   : 8 bits
    Scan type                   : Progressive
    Bits/(Pixel*Frame)          : 0.151
    Stream size                 : 2.21 GiB (96%)
    Title                       : cinemaniahdd
    Writing library             : x264 core 148 r2715 7e75228
    Encoding settings           : cabac=1 / ref=3 / deblock=1:0:0 / analyse=0x1:0x111 / me=umh / subme=10 / psy=1 / psy_rd=1.00:0.00 / mixed_ref=1 / me_range=24 / chroma_me=1 / trellis=2 / 8x8dct=0 / cqm=0 / deadzone=21,11 / fast_pskip=1 / chroma_qp_offset=-2 / threads=8 / lookahead_threads=1 / sliced_threads=0 / nr=0 / decimate=1 / interlaced=0 / bluray_compat=0 / stitchable=1 / constrained_intra=0 / bframes=2 / b_pyramid=0 / b_adapt=2 / b_bias=0 / direct=3 / weightb=1 / open_gop=0 / weightp=2 / keyint=48 / keyint_min=25 / scenecut=0 / intra_refresh=0 / rc_lookahead=48 / rc=2pass / mbtree=1 / bitrate=7500 / ratetol=1.0 / qcomp=0.50 / qpmin=6 / qpmax=51 / qpstep=4 / cplxblur=20.0 / qblur=0.5 / vbv_maxrate=11250 / vbv_bufsize=15000 / nal_hrd=vbr / filler=0 / ip_ratio=1.40 / aq=1:1.00
    Default                     : Yes
    Forced                      : No
    Statistics Tags Issue       : mkvmerge v11.0.0 ('Alive') 64bit 2019-01-27 08:34:03 / mkvmerge v11.0.0 ('Alive') 64bit 2019-01-27 08:34:03 / UTC 2018-12-05 02:32:08
    FromStats_BitRate           : 7480276
    FromStats_Duration          : 00:43:12.632000000
    FromStats_FrameCount        : 62161
    FromStats_StreamSize        : 2424200554

    Audio
    ID                          : 2
    Format                      : E-AC-3
    Format/Info                 : Enhanced AC-3
    Commercial name             : Dolby Digital Plus
    Codec ID                    : A_EAC3
    Duration                    : 43 min 12 s
    Bit rate mode               : Constant
    Bit rate                    : 128 kb/s
    Channel(s)                  : 2 channels
    Channel layout              : L R
    Sampling rate               : 48.0 kHz
    Frame rate                  : 31.250 FPS (1536 SPF)
    Compression mode            : Lossy
    Stream size                 : 39.6 MiB (2%)
    Title                       : Español latino [cinemaniahdd]
    Language                    : Spanish
    Service kind                : Complete Main
    Default                     : Yes
    Forced                      : No
    Encoded date                : UTC 2018-12-05 02:32:08
    Statistics Tags Issue       : mkvmerge v11.0.0 ('Alive') 64bit 2019-01-27 08:34:03 / mkvmerge v11.0.0 ('Alive') 64bit 2019-01-27 08:34:03 / UTC 2018-12-05 02:32:08
    FromStats_BitRate           : 128000
    FromStats_Duration          : 00:43:12.672000000
    FromStats_FrameCount        : 81021
    FromStats_StreamSize        : 41482752

    Text #1
    ID                          : 3
    Format                      : UTF-8
    Codec ID                    : S_TEXT/UTF8
    Codec ID/Info               : UTF-8 Plain Text
    Title                       : Inglés [cinemaniahdd]
    Language                    : English
    Default                     : Yes
    Forced                      : Yes
    Statistics Tags Issue       : mkvmerge v11.0.0 ('Alive') 64bit 2019-01-27 08:34:03 / mkvmerge v11.0.0 ('Alive') 64bit 2019-01-27 08:34:03 / UTC 2018-12-05 02:32:08
    FromStats_BitRate           : 37
    FromStats_Duration          : 00:42:38.681000000
    FromStats_FrameCount        : 495
    FromStats_StreamSize        : 12109

    Text #2
    ID                          : 4
    Format                      : UTF-8
    Codec ID                    : S_TEXT/UTF8
    Codec ID/Info               : UTF-8 Plain Text
    Title                       : Español latino [cinemaniahdd]
    Language                    : Spanish
    Default                     : No
    Forced                      : No
    Statistics Tags Issue       : mkvmerge v11.0.0 ('Alive') 64bit 2019-01-27 08:34:03 / mkvmerge v11.0.0 ('Alive') 64bit 2019-01-27 08:34:03 / UTC 2018-12-05 02:32:08
    FromStats_BitRate           : 29
    FromStats_Duration          : 00:43:08.043000000
    FromStats_FrameCount        : 378
    FromStats_StreamSize        : 9469

  • Peso: 2.30 GiB

Sinopsis

Serie de TV (2014-Actualidad). En Z Nation nos encontramos justo tres años después de que los zombies se propagaran por todo el mundo. Apenas quedan reductos de humanos que sobreviven como pueden. Un grupo de supervivientes con experiencia militar tendrán que iniciar un largo viaje para llevar al último superviviente de los zombies hasta el último laboratorio que sigue funcionando y donde podrían encontrar la clave para frenar este plaga.

Español Latino E-AC3 2.0 Netflix

Ficha técnica

Video trailer de la película

Enlaces de descarga

Rip de Bluray

Descargar Z Nation (2018) NF Temporada 5 WEB-DL Latino




Aportes de DPeliculasHDmega la pass es:dpeliculashdmega.org Aportes de CinemaniaHD la pass es:cinemaniahdd.com

Películas relacionadas

Z Nation (2018) NF Temporada 5 WEB-DL Latino pelicula full hd, Z Nation (2018) NF Temporada 5 WEB-DL Latino mega latino, Z Nation (2018) NF Temporada 5 WEB-DL Latino 4k latino, Z Nation (2018) NF Temporada 5 WEB-DL Latino pelicula completa, Z Nation (2018) NF Temporada 5 WEB-DL Latino descargar gratis, descargar Z Nation (2018) NF Temporada 5 WEB-DL Latino pelicula latino, Z Nation (2018) NF Temporada 5 WEB-DL Latino 1 link mega, Z Nation (2018) NF Temporada 5 WEB-DL Latino 1 link google drive, Z Nation (2018) NF Temporada 5 WEB-DL Latino hd 1080p latino.
Comentarios 0