×

¿Problemas para descargar con Mozilla, EDGE? Deshabilita la opción "Abrir vinculos en una pestaña nueva" tal como lo muestra ésta imagen.

Your Christmas or Mine (2022) AMZN WEB-DL 1080p Latino

293 vistas

Información de Your Christmas or Mine (2022) AMZN WEB-DL 1080p Latino

Datos de la película

  • Calidad: 1080p
  • Audio: Español Latino AC3 5.1 WEB-DL - Ingles AC3 5.1 WEB-DL
  • Subtitulos: Español Latino SRT- FORZADOS SRT
  • Resolución: 1920x1080
  • Formato: MKV
  • Codec: H.264
  • Encoder: cinemaniahdd
  • Mediainfo: Clic para Mostrar Datos Ver
  • Your Christmas or Mine (2022) AMZN WEB-DL 1080p Latino [CNMNHDD].mkv
    Format                      : Matroska
    Format version              : Version 4
    File size                   : 5.05 GiB
    Duration                    : 1 h 34 min
    Overall bit rate            : 7 672 kb/s
    Movie name                  : TU NAVIDAD O LA MIA (2022) [1080p] - CinemaniaHDD.Net
    Encoded date                : UTC 2023-12-07 23:58:45
    Writing application         : mkvmerge v56.1.0 ('My Friend') 64-bit
    Writing library             : libebml v1.4.2 + libmatroska v1.6.4

    Video
    ID                          : 1
    Format                      : AVC
    Format/Info                 : Advanced Video Codec
    Format profile              : High@L4
    Format settings             : CABAC / 4 Ref Frames
    Format settings, CABAC      : Yes
    Format settings, Reference  : 4 frames
    Codec ID                    : V_MPEG4/ISO/AVC
    Duration                    : 1 h 34 min
    Bit rate mode               : Constant
    Bit rate                    : 5 749 kb/s
    Nominal bit rate            : 10 000 kb/s
    Width                       : 1 920 pixels
    Height                      : 816 pixels
    Display aspect ratio        : 2.35:1
    Frame rate mode             : Constant
    Frame rate                  : 23.976 (24000/1001) FPS
    Color space                 : YUV
    Chroma subsampling          : 4:2:0
    Bit depth                   : 8 bits
    Scan type                   : Progressive
    Bits/(Pixel*Frame)          : 0.153
    Stream size                 : 3.78 GiB (75%)
    Title                       : CinemaniaHDD
    Default                     : Yes
    Forced                      : No
    Color range                 : Limited
    Color primaries             : BT.709
    Transfer characteristics    : BT.709
    Matrix coefficients         : BT.709

    Audio #1
    ID                          : 2
    Format                      : AC-3
    Format/Info                 : Audio Coding 3
    Commercial name             : Dolby Digital
    Codec ID                    : A_AC3
    Duration                    : 1 h 34 min
    Bit rate mode               : Constant
    Bit rate                    : 640 kb/s
    Channel(s)                  : 6 channels
    Channel layout              : L R C LFE Ls Rs
    Sampling rate               : 48.0 kHz
    Frame rate                  : 31.250 FPS (1536 SPF)
    Compression mode            : Lossy
    Stream size                 : 431 MiB (8%)
    Title                       : Español Latino [CinemaniaHDD]
    Language                    : Spanish
    Service kind                : Complete Main
    Default                     : Yes
    Forced                      : No

    Audio #2
    ID                          : 3
    Format                      : E-AC-3
    Format/Info                 : Enhanced AC-3
    Commercial name             : Dolby Digital Plus
    Codec ID                    : A_EAC3
    Duration                    : 1 h 34 min
    Bit rate mode               : Constant
    Bit rate                    : 640 kb/s
    Channel(s)                  : 6 channels
    Channel layout              : L R C LFE Ls Rs
    Sampling rate               : 48.0 kHz
    Frame rate                  : 31.250 FPS (1536 SPF)
    Compression mode            : Lossy
    Stream size                 : 431 MiB (8%)
    Title                       : Español latino / E-AC3 [CinemaniaHDD]
    Language                    : Spanish
    Service kind                : Complete Main
    Default                     : No
    Forced                      : No

    Audio #3
    ID                          : 4
    Format                      : E-AC-3
    Format/Info                 : Enhanced AC-3
    Commercial name             : Dolby Digital Plus
    Codec ID                    : A_EAC3
    Duration                    : 1 h 34 min
    Bit rate mode               : Constant
    Bit rate                    : 640 kb/s
    Channel(s)                  : 6 channels
    Channel layout              : L R C LFE Ls Rs
    Sampling rate               : 48.0 kHz
    Frame rate                  : 31.250 FPS (1536 SPF)
    Compression mode            : Lossy
    Stream size                 : 431 MiB (8%)
    Title                       : Inglés [CinemaniaHDD]
    Language                    : English
    Service kind                : Complete Main
    Default                     : No
    Forced                      : No

    Text #1
    ID                          : 5
    Format                      : UTF-8
    Codec ID                    : S_TEXT/UTF8
    Codec ID/Info               : UTF-8 Plain Text
    Duration                    : 1 h 31 min
    Bit rate                    : 0 b/s
    Count of elements           : 21
    Stream size                 : 498 Bytes (0%)
    Title                       : Forzados [CinemaniaHDD]
    Language                    : Spanish
    Default                     : Yes
    Forced                      : Yes

    Text #2
    ID                          : 6
    Format                      : UTF-8
    Codec ID                    : S_TEXT/UTF8
    Codec ID/Info               : UTF-8 Plain Text
    Duration                    : 1 h 31 min
    Bit rate                    : 64 b/s
    Count of elements           : 1359
    Stream size                 : 43.3 KiB (0%)
    Title                       : Español Latino [CinemaniaHDD]
    Language                    : Spanish
    Default                     : No
    Forced                      : No

    Text #3
    ID                          : 7
    Format                      : UTF-8
    Codec ID                    : S_TEXT/UTF8
    Codec ID/Info               : UTF-8 Plain Text
    Duration                    : 1 h 32 min
    Bit rate                    : 79 b/s
    Count of elements           : 1626
    Stream size                 : 54.0 KiB (0%)
    Title                       : Inglés [CinemaniaHDD]
    Language                    : English
    Default                     : No
    Forced                      : No

    Menu
    00:00:00.000                : 1. Amazon Original
    00:00:06.000                : 2. Opening Credits
    00:01:15.000                : 3. Title Sequence
    00:01:26.000                : Scene 4
    00:03:30.000                : Scene 5
    00:05:55.000                : 6. Title Sequence
    00:06:07.000                : Scene 7
    00:08:35.000                : Scene 8
    00:12:29.000                : Scene 9
    00:14:56.000                : Scene 10
    00:17:12.000                : Scene 11
    00:19:58.000                : Scene 12
    00:24:32.000                : Scene 13
    00:27:59.000                : Scene 14
    00:29:50.000                : Scene 15
    00:33:27.000                : Scene 16
    00:35:03.000                : Scene 17
    00:37:47.000                : Scene 18
    00:39:40.000                : Scene 19
    00:42:13.000                : Scene 20
    00:44:52.000                : Scene 21
    00:47:35.000                : Scene 22
    00:49:29.000                : Scene 23
    00:51:46.000                : Scene 24
    00:53:40.000                : Scene 25
    00:55:54.000                : Scene 26
    00:58:59.000                : Scene 27
    01:01:09.000                : Scene 28
    01:06:38.000                : Scene 29
    01:10:17.000                : Scene 30
    01:16:35.000                : Scene 31
    01:19:18.000                : Scene 32
    01:23:37.000                : Scene 33
    01:25:23.000                : Scene 34
    01:29:41.000                : 35. End Credits

     

     

  • Peso: 5.05 GiB

Sinopsis

Es víspera de Nochebuena. Tras despedirse en la estación Marlyebone, los flamantes novios Hayley y Jamesadvierten que no soportarán pasar la Navidad separados, entonces deciden sorprender al otro y, sin saberlo, secruzan y cambian de tren. Empieza a nevar y así llega la certeza de que deberán pasar la Navidad con la familiadel otro. ¿Su amor sobrevivirá cuando sus mayores secretos se revelen?

Ficha técnica

  • Titulo original: Your Christmas Or Mine?
  • Fecha de lanzamiento: 02-12-2022 (United Kingdom)
  • Director: Jim O'Hanlon
  • Género: Comedia

Video trailer de la película

Enlaces de descarga

Rip de Bluray

Descargar Your Christmas or Mine (2022) AMZN WEB-DL 1080p Latino




Aportes de DPeliculasHDmega la pass es:dpeliculashdmega.org Aportes de CinemaniaHD la pass es:cinemaniahdd.com Aportes recientes:cinemaniahdd.net
Guardado en : Comedia

Películas relacionadas

  • Viviendo con mi ex (2006) REMUX 1080p Latino-CMHDD

    Viviendo con mi ex (2006) REMUX 1080p Latino-CMHDD

    2006
    Viviendo con mi ex (2006) REMUX 1080p Latino-CMHDD

    1h 46m 2006

    Descargar Viviendo con mi ex (2006) REMUX 1080p Latino-CMHDD. Relato sobre las consecuencias de una ruptura...

    Director: Todd Amateau

    Género: Comedia

    Actores: William Dick

  • The Lego Movie (2014) REMUX 4K HDR Latino – CMHDD

    The Lego Movie (2014) REMUX 4K HDR Latino – CMHDD

    2014
    The Lego Movie (2014) REMUX 4K HDR Latino – CMHDD

    1h 40m 2014

    Película basada en los clásicos juguetes LEGO. Emmet, el protagonista de la película, trabaja como...

    Director: Vernessa Cook

    Género: Animación

    Actores: Will Forte

  • The Lego Movie (2014) REMUX 1080p Latino – CMHDD

    The Lego Movie (2014) REMUX 1080p Latino – CMHDD

    2014
    The Lego Movie (2014) REMUX 1080p Latino – CMHDD

    1h 40m 2014

    Película basada en los clásicos juguetes LEGO. Emmet, el protagonista de la película, trabaja como...

    Director: Vernessa Cook

    Género: Animación

    Actores: Will Forte

descargar Your Christmas or Mine (2022) AMZN WEB-DL 1080p Latino 1080p 1080p gratis, Your Christmas or Mine (2022) AMZN WEB-DL 1080p Latino 1080p mega 1 link, Your Christmas or Mine (2022) AMZN WEB-DL 1080p Latino 1080p pelicula completa, descargar Your Christmas or Mine (2022) AMZN WEB-DL 1080p Latino 1080p gratis en mega.

Your Christmas or Mine (2022) AMZN WEB-DL 1080p Latino pelicula full hd, Your Christmas or Mine (2022) AMZN WEB-DL 1080p Latino mega latino, Your Christmas or Mine (2022) AMZN WEB-DL 1080p Latino 4k latino, Your Christmas or Mine (2022) AMZN WEB-DL 1080p Latino pelicula completa, Your Christmas or Mine (2022) AMZN WEB-DL 1080p Latino descargar gratis, descargar Your Christmas or Mine (2022) AMZN WEB-DL 1080p Latino pelicula latino, Your Christmas or Mine (2022) AMZN WEB-DL 1080p Latino 1 link mega, Your Christmas or Mine (2022) AMZN WEB-DL 1080p Latino 1 link google drive, Your Christmas or Mine (2022) AMZN WEB-DL 1080p Latino hd 1080p latino.
Comentarios 0