×

¿Problemas para descargar con Mozilla, EDGE? Deshabilita la opción "Abrir vinculos en una pestaña nueva" tal como lo muestra ésta imagen.

Young Sheldon (2022-2023) Temporada 6 AMZN WEB-DL 1080p Latino

68 vistas

Información de Young Sheldon (2022-2023) Temporada 6 AMZN WEB-DL 1080p Latino

Datos de la película

  • Calidad: WEBDL
  • Audio: Español Latino E-AC3 5.1 AMAZON - Ingles E-AC3 5.1 AMAZON
  • Subtitulos: Español Latino SRT
  • Resolución: 1920x1080p
  • Formato: MKV
  • Codec: H.264
  • Encoder: Melkor
  • Mediainfo: Clic para Mostrar Datos Ver
  • Young Sheldon S06E01 (2022) NF WebDL 1080p Latino.mkv
    Format                      : Matroska
    Format version              : Version 4
    File size                   : 1.29 GiB
    Duration                    : 19 min 32 s
    Overall bit rate            : 9 462 kb/s
    Movie name                  : Young Sheldon S06E01 - Four Hundred Cartons of Undeclared Cigarettes and a Niblingo  CinemaniaHDD.Net
    Encoded date                : UTC 2023-11-29 23:22:50
    Writing application         : mkvmerge v59.0.0 ('Shining Star') 64-bit
    Writing library             : libebml v1.4.2 + libmatroska v1.6.4
    Attachments                 : CINEMANIAHD.png
    Site                        : CinemaniaHDD.Net
    Uploader                    : Melkor

    Video
    ID                          : 1
    Format                      : AVC
    Format/Info                 : Advanced Video Codec
    Format profile              : High@L4
    Format settings             : CABAC / 4 Ref Frames
    Format settings, CABAC      : Yes
    Format settings, Reference  : 4 frames
    Codec ID                    : V_MPEG4/ISO/AVC
    Duration                    : 19 min 32 s
    Bit rate mode               : Constant
    Bit rate                    : 8 179 kb/s
    Nominal bit rate            : 10 000 kb/s
    Width                       : 1 920 pixels
    Height                      : 1 080 pixels
    Display aspect ratio        : 16:9
    Frame rate mode             : Constant
    Frame rate                  : 23.976 (24000/1001) FPS
    Color space                 : YUV
    Chroma subsampling          : 4:2:0
    Bit depth                   : 8 bits
    Scan type                   : Progressive
    Bits/(Pixel*Frame)          : 0.165
    Stream size                 : 1.12 GiB (86%)
    Title                       : WEB HD1080p [CinemaniaHDD]
    Default                     : Yes
    Forced                      : No
    Color range                 : Limited
    Color primaries             : BT.709
    Transfer characteristics    : BT.709
    Matrix coefficients         : BT.709

    Audio #1
    ID                          : 2
    Format                      : E-AC-3
    Format/Info                 : Enhanced AC-3
    Commercial name             : Dolby Digital Plus
    Codec ID                    : A_EAC3
    Duration                    : 19 min 32 s
    Bit rate mode               : Constant
    Bit rate                    : 640 kb/s
    Channel(s)                  : 6 channels
    Channel layout              : L R C LFE Ls Rs
    Sampling rate               : 48.0 kHz
    Frame rate                  : 31.250 FPS (1536 SPF)
    Compression mode            : Lossy
    Stream size                 : 89.4 MiB (7%)
    Title                       : Español Latino [CinemaniaHDD]
    Language                    : Spanish
    Service kind                : Complete Main
    Default                     : Yes
    Forced                      : No

    Audio #2
    ID                          : 3
    Format                      : E-AC-3
    Format/Info                 : Enhanced AC-3
    Commercial name             : Dolby Digital Plus
    Codec ID                    : A_EAC3
    Duration                    : 19 min 32 s
    Bit rate mode               : Constant
    Bit rate                    : 640 kb/s
    Channel(s)                  : 6 channels
    Channel layout              : L R C LFE Ls Rs
    Sampling rate               : 48.0 kHz
    Frame rate                  : 31.250 FPS (1536 SPF)
    Compression mode            : Lossy
    Stream size                 : 89.4 MiB (7%)
    Title                       : Ingles [CinemaniaHDD]
    Language                    : English
    Service kind                : Complete Main
    Default                     : No
    Forced                      : No

    Text #1
    ID                          : 4
    Format                      : UTF-8
    Codec ID                    : S_TEXT/UTF8
    Codec ID/Info               : UTF-8 Plain Text
    Duration                    : 18 min 58 s
    Bit rate                    : 83 b/s
    Count of elements           : 395
    Stream size                 : 11.6 KiB (0%)
    Title                       : Español-SRT [CinemaniaHDD]
    Language                    : Spanish
    Default                     : No
    Forced                      : No

    Text #2
    ID                          : 5
    Format                      : UTF-8
    Codec ID                    : S_TEXT/UTF8
    Codec ID/Info               : UTF-8 Plain Text
    Duration                    : 18 min 57 s
    Bit rate                    : 93 b/s
    Count of elements           : 504
    Stream size                 : 13.0 KiB (0%)
    Title                       : Ingles-SRT [CinemaniaHDD]
    Language                    : English
    Default                     : No
    Forced                      : No

  • Peso: 1.30 GiB -- 30.2 GiB -- 22 Chapters

Sinopsis

Descargar Young Sheldon (2022-2023) Temporada 6 AMZN WEB-DL 1080p Latino. Conozca a un niño genio llamado Sheldon Cooper y su familia. Sheldon, quien parece tener problemas sociales, enfrenta algunos desafíos únicos.
Temporada 6: ¿La familia Cooper y uno más? George sigue buscando trabajo tras dimitir como entrenador del equipo y Mary tiene dificultades para encontrar un nuevo lugar donde sentirse útil, ahora que ya no es bienvenida en la iglesia. Mientras tanto, Georgie hace lo posible para convertirse en un padre a la altura de lo que Mandy necesita, Missy trata de encontrar su lugar como adolescente y Sheldon pone a prueba un nuevo estilo en la universidad.

Nota: Por error en la nomeclatura del archivo menciona «NF WEB-DL» pero en realidad la fuente es «AMZN» 🙂

Ficha técnica

Video trailer de la película

Enlaces de descarga

Rip de Bluray

Descargar Young Sheldon (2022-2023) Temporada 6 AMZN WEB-DL 1080p Latino




Aportes de DPeliculasHDmega la pass es:dpeliculashdmega.org Aportes de CinemaniaHD la pass es:cinemaniahdd.com Aportes recientes:cinemaniahdd.net
Guardado en : Comedia , Familia , Series

Películas relacionadas

descargar Young Sheldon (2022-2023) Temporada 6 AMZN WEB-DL 1080p Latino WEBDL 1080p gratis, Young Sheldon (2022-2023) Temporada 6 AMZN WEB-DL 1080p Latino WEBDL mega 1 link, Young Sheldon (2022-2023) Temporada 6 AMZN WEB-DL 1080p Latino WEBDL serie completa, descargar Young Sheldon (2022-2023) Temporada 6 AMZN WEB-DL 1080p Latino WEBDL gratis en mega.

Young Sheldon (2022-2023) Temporada 6 AMZN WEB-DL 1080p Latino pelicula full hd, Young Sheldon (2022-2023) Temporada 6 AMZN WEB-DL 1080p Latino mega latino, Young Sheldon (2022-2023) Temporada 6 AMZN WEB-DL 1080p Latino 4k latino, Young Sheldon (2022-2023) Temporada 6 AMZN WEB-DL 1080p Latino pelicula completa, Young Sheldon (2022-2023) Temporada 6 AMZN WEB-DL 1080p Latino descargar gratis, descargar Young Sheldon (2022-2023) Temporada 6 AMZN WEB-DL 1080p Latino pelicula latino, Young Sheldon (2022-2023) Temporada 6 AMZN WEB-DL 1080p Latino 1 link mega, Young Sheldon (2022-2023) Temporada 6 AMZN WEB-DL 1080p Latino 1 link google drive, Young Sheldon (2022-2023) Temporada 6 AMZN WEB-DL 1080p Latino hd 1080p latino.
Comentarios 0