×

¿Problemas para descargar con Mozilla, EDGE? Deshabilita la opción "Abrir vinculos en una pestaña nueva" tal como lo muestra ésta imagen.

Young Sheldon (2020) Temporada 4 NF WEB-DL 1080p Latino

76 vistas

Información de Young Sheldon (2020) Temporada 4 NF WEB-DL 1080p Latino

Datos de la película

  • Calidad: WEBDL
  • Audio: Se especifica abajo de la Sinopsis
  • Subtitulos: Español Latino SRT
  • Resolución: 1920x1080p
  • Formato: MKV
  • Codec: H.264
  • Encoder: Melkor
  • Mediainfo: Clic para Mostrar Datos Ver
  • Young Sheldon S04E01 (2020) NF WebDL 1080p Latino.mkv
    Format                      : Matroska
    Format version              : Version 4
    File size                   : 826 MiB
    Duration                    : 18 min 32 s
    Overall bit rate mode       : Variable
    Overall bit rate            : 6 231 kb/s
    Movie name                  : Young Sheldon S04E01 - Graduation  CinemaniaHDD.Net
    Encoded date                : UTC 2023-11-29 03:01:34
    Writing application         : mkvmerge v59.0.0 ('Shining Star') 64-bit
    Writing library             : libebml v1.4.2 + libmatroska v1.6.4
    Attachments                 : CINEMANIAHD.png
    Site                        : CinemaniaHDD.Net
    Uploader                    : Melkor

    Video
    ID                          : 1
    Format                      : AVC
    Format/Info                 : Advanced Video Codec
    Format profile              : High@L4
    Format settings             : CABAC / 4 Ref Frames
    Format settings, CABAC      : Yes
    Format settings, Reference  : 4 frames
    Codec ID                    : V_MPEG4/ISO/AVC
    Duration                    : 18 min 31 s
    Bit rate mode               : Variable
    Bit rate                    : 5 461 kb/s
    Maximum bit rate            : 20.0 Mb/s
    Width                       : 1 920 pixels
    Height                      : 1 080 pixels
    Display aspect ratio        : 16:9
    Frame rate mode             : Constant
    Frame rate                  : 23.976 (24000/1001) FPS
    Color space                 : YUV
    Chroma subsampling          : 4:2:0
    Bit depth                   : 8 bits
    Scan type                   : Progressive
    Bits/(Pixel*Frame)          : 0.110
    Stream size                 : 724 MiB (88%)
    Title                       : WEB HD1080p [CinemaniaHDD]
    Writing library             : x264 core 148 r2727 7d026e8
    Encoding settings           : cabac=1 / ref=4 / deblock=1:0:0 / analyse=0x3:0x111 / me=umh / subme=10 / psy=1 / psy_rd=1.00:0.00 / mixed_ref=1 / me_range=120 / chroma_me=1 / trellis=2 / 8x8dct=1 / cqm=0 / deadzone=21,11 / fast_pskip=1 / chroma_qp_offset=-2 / threads=8 / lookahead_threads=2 / sliced_threads=0 / nr=0 / decimate=1 / interlaced=0 / bluray_compat=0 / stitchable=1 / constrained_intra=0 / bframes=16 / b_pyramid=2 / b_adapt=2 / b_bias=0 / direct=3 / weightb=1 / open_gop=0 / weightp=2 / keyint=240 / keyint_min=121 / scenecut=0 / intra_refresh=0 / rc_lookahead=240 / rc=crf / mbtree=1 / crf=16.0 / qcomp=0.50 / qpmin=6 / qpmax=51 / qpstep=4 / vbv_maxrate=20000 / vbv_bufsize=25000 / crf_max=0.0 / nal_hrd=vbr / filler=0 / ip_ratio=1.40 / aq=1:0.80
    Default                     : Yes
    Forced                      : No

    Audio #1
    ID                          : 2
    Format                      : AAC LC SBR
    Format/Info                 : Advanced Audio Codec Low Complexity with Spectral Band Replication
    Commercial name             : HE-AAC
    Format settings             : Explicit
    Codec ID                    : A_AAC-2
    Duration                    : 18 min 31 s
    Bit rate                    : 128 kb/s
    Channel(s)                  : 2 channels
    Channel layout              : L R
    Sampling rate               : 48.0 kHz
    Frame rate                  : 23.438 FPS (2048 SPF)
    Compression mode            : Lossy
    Stream size                 : 17.0 MiB (2%)
    Title                       : Español Latino [CinemaniaHDD]
    Language                    : Spanish
    Default                     : Yes
    Forced                      : No

    Audio #2
    ID                          : 3
    Format                      : E-AC-3
    Format/Info                 : Enhanced AC-3
    Commercial name             : Dolby Digital Plus
    Codec ID                    : A_EAC3
    Duration                    : 18 min 32 s
    Bit rate mode               : Constant
    Bit rate                    : 640 kb/s
    Channel(s)                  : 6 channels
    Channel layout              : L R C LFE Ls Rs
    Sampling rate               : 48.0 kHz
    Frame rate                  : 31.250 FPS (1536 SPF)
    Compression mode            : Lossy
    Stream size                 : 84.8 MiB (10%)
    Title                       : Ingles [CinemaniaHDD]
    Language                    : English
    Service kind                : Complete Main
    Default                     : No
    Forced                      : No

    Text #1
    ID                          : 4
    Format                      : UTF-8
    Codec ID                    : S_TEXT/UTF8
    Codec ID/Info               : UTF-8 Plain Text
    Duration                    : 29 s 572 ms
    Bit rate                    : 11 b/s
    Count of elements           : 2
    Stream size                 : 42.0 Bytes (0%)
    Title                       : Forzados-SRT [CinemaniaHDD]
    Language                    : Spanish
    Default                     : Yes
    Forced                      : Yes

    Text #2
    ID                          : 5
    Format                      : UTF-8
    Codec ID                    : S_TEXT/UTF8
    Codec ID/Info               : UTF-8 Plain Text
    Duration                    : 18 min 26 s
    Bit rate                    : 87 b/s
    Count of elements           : 337
    Stream size                 : 11.9 KiB (0%)
    Title                       : Español-SRT [CinemaniaHDD]
    Language                    : Spanish
    Default                     : No
    Forced                      : No

    Text #3
    ID                          : 6
    Format                      : UTF-8
    Codec ID                    : S_TEXT/UTF8
    Codec ID/Info               : UTF-8 Plain Text
    Duration                    : 18 min 5 s
    Bit rate                    : 99 b/s
    Count of elements           : 435
    Stream size                 : 13.1 KiB (0%)
    Title                       : Ingles-SRT [CinemaniaHDD]
    Language                    : English
    Default                     : No
    Forced                      : No

  • Peso: 500 MiB -- 8.53 GiB -- 18 Chapters

Sinopsis

Descargar Young Sheldon (2020) Temporada 4 NF WEB-DL 1080p Latino. Conozca a un niño genio llamado Sheldon Cooper y su familia. Sheldon, quien parece tener problemas sociales, enfrenta algunos desafíos únicos.
Temporada 4: Sheldon afronta con emoción su primer año oficial de universidad en lo que espera que sea un entorno más seguro y adecuado para su nivel intelectual. Después de convencer a su madre de que está preparado, por fin puede empezar las clases presenciales en la universidad East Texas Tech bajo la tutela de Sturgiss. Pero la vida no pasa sin dificultades para nadie, ni siquiera para el mayor genio de todo Texas. Mientras tanto, Mary y George intentan sobrellevar la preocupación extra y no olvidarse de que tienen otros dos hijos con sus propias genialidades.

Español Latino AAC 2.0 NF – Ingles EAC3 5.1 NF

Ficha técnica

Video trailer de la película

Enlaces de descarga

Rip de Bluray

Descargar Young Sheldon (2020) Temporada 4 NF WEB-DL 1080p Latino




Aportes de DPeliculasHDmega la pass es:dpeliculashdmega.org Aportes de CinemaniaHD la pass es:cinemaniahdd.com Aportes recientes:cinemaniahdd.net
Guardado en : Comedia , Familia , Netflix , Series

Películas relacionadas

descargar Young Sheldon (2020) Temporada 4 NF WEB-DL 1080p Latino WEBDL 1080p gratis, Young Sheldon (2020) Temporada 4 NF WEB-DL 1080p Latino WEBDL mega 1 link, Young Sheldon (2020) Temporada 4 NF WEB-DL 1080p Latino WEBDL serie completa, descargar Young Sheldon (2020) Temporada 4 NF WEB-DL 1080p Latino WEBDL gratis en mega.

Young Sheldon (2020) Temporada 4 NF WEB-DL 1080p Latino pelicula full hd, Young Sheldon (2020) Temporada 4 NF WEB-DL 1080p Latino mega latino, Young Sheldon (2020) Temporada 4 NF WEB-DL 1080p Latino 4k latino, Young Sheldon (2020) Temporada 4 NF WEB-DL 1080p Latino pelicula completa, Young Sheldon (2020) Temporada 4 NF WEB-DL 1080p Latino descargar gratis, descargar Young Sheldon (2020) Temporada 4 NF WEB-DL 1080p Latino pelicula latino, Young Sheldon (2020) Temporada 4 NF WEB-DL 1080p Latino 1 link mega, Young Sheldon (2020) Temporada 4 NF WEB-DL 1080p Latino 1 link google drive, Young Sheldon (2020) Temporada 4 NF WEB-DL 1080p Latino hd 1080p latino.
Comentarios 0