×

¿Problemas para descargar con Mozilla, EDGE? Deshabilita la opción "Abrir vinculos en una pestaña nueva" tal como lo muestra ésta imagen.

Young Sheldon (2019) Temporada 3 NF WEB-DL 1080p Latino

177 vistas

Información de Young Sheldon (2019) Temporada 3 NF WEB-DL 1080p Latino

Datos de la película

  • Calidad: WEBDL
  • Audio: Se especifica abajo de la Sinopsis
  • Subtitulos: Español Latino SRT
  • Resolución: 1920x1080p
  • Formato: MKV
  • Codec: H.264
  • Encoder: Melkor
  • Mediainfo: Clic para Mostrar Datos Ver
  • Young Sheldon S03E01 (2019) NF WebDL 1080p Latino.mkv
    Format                      : Matroska
    Format version              : Version 4
    File size                   : 563 MiB
    Duration                    : 19 min 19 s
    Overall bit rate mode       : Variable
    Overall bit rate            : 4 075 kb/s
    Movie name                  : Young Sheldon S03E01 - Quirky Eggheads and Texas Snow Globes  CinemaniaHDD.Net
    Encoded date                : UTC 2023-11-29 02:37:59
    Writing application         : mkvmerge v59.0.0 ('Shining Star') 64-bit
    Writing library             : libebml v1.4.2 + libmatroska v1.6.4
    Attachments                 : CINEMANIAHD.png
    Site                        : CinemaniaHDD.Net
    Uploader                    : Melkor

    Video
    ID                          : 1
    Format                      : AVC
    Format/Info                 : Advanced Video Codec
    Format profile              : Main@L4
    Format settings             : CABAC / 3 Ref Frames
    Format settings, CABAC      : Yes
    Format settings, Reference  : 3 frames
    Codec ID                    : V_MPEG4/ISO/AVC
    Duration                    : 19 min 18 s
    Bit rate mode               : Variable
    Bit rate                    : 3 320 kb/s
    Maximum bit rate            : 4 980 kb/s
    Width                       : 1 920 pixels
    Height                      : 1 080 pixels
    Display aspect ratio        : 16:9
    Frame rate mode             : Constant
    Frame rate                  : 23.976 (24000/1001) FPS
    Color space                 : YUV
    Chroma subsampling          : 4:2:0
    Bit depth                   : 8 bits
    Scan type                   : Progressive
    Bits/(Pixel*Frame)          : 0.067
    Stream size                 : 457 MiB (81%)
    Title                       : WEB HD1080p [CinemaniaHDD]
    Writing library             : x264 core 148 r2724 dbe0335
    Encoding settings           : cabac=1 / ref=3 / deblock=1:0:0 / analyse=0x1:0x111 / me=umh / subme=10 / psy=1 / psy_rd=1.00:0.00 / mixed_ref=1 / me_range=24 / chroma_me=1 / trellis=2 / 8x8dct=0 / cqm=0 / deadzone=21,11 / fast_pskip=1 / chroma_qp_offset=-2 / threads=8 / lookahead_threads=1 / sliced_threads=0 / nr=0 / decimate=1 / interlaced=0 / bluray_compat=0 / stitchable=1 / constrained_intra=0 / bframes=2 / b_pyramid=0 / b_adapt=2 / b_bias=0 / direct=3 / weightb=1 / open_gop=0 / weightp=2 / keyint=250 / keyint_min=23 / scenecut=0 / intra_refresh=0 / rc_lookahead=48 / rc=2pass / mbtree=1 / bitrate=3320 / ratetol=1.0 / qcomp=0.50 / qpmin=6 / qpmax=51 / qpstep=4 / cplxblur=20.0 / qblur=0.5 / vbv_maxrate=4980 / vbv_bufsize=6640 / nal_hrd=vbr / filler=0 / ip_ratio=1.40 / aq=1:1.00
    Default                     : Yes
    Forced                      : No

    Audio #1
    ID                          : 2
    Format                      : AAC LC SBR
    Format/Info                 : Advanced Audio Codec Low Complexity with Spectral Band Replication
    Commercial name             : HE-AAC
    Format settings             : Explicit
    Codec ID                    : A_AAC-2
    Duration                    : 19 min 19 s
    Bit rate                    : 128 kb/s
    Channel(s)                  : 2 channels
    Channel layout              : L R
    Sampling rate               : 48.0 kHz
    Frame rate                  : 23.438 FPS (2048 SPF)
    Compression mode            : Lossy
    Stream size                 : 17.7 MiB (3%)
    Title                       : Español Latino [CinemaniaHDD]
    Language                    : Spanish
    Default                     : Yes
    Forced                      : No

    Audio #2
    ID                          : 3
    Format                      : E-AC-3
    Format/Info                 : Enhanced AC-3
    Commercial name             : Dolby Digital Plus
    Codec ID                    : A_EAC3
    Duration                    : 19 min 19 s
    Bit rate mode               : Constant
    Bit rate                    : 640 kb/s
    Channel(s)                  : 6 channels
    Channel layout              : L R C LFE Ls Rs
    Sampling rate               : 48.0 kHz
    Frame rate                  : 31.250 FPS (1536 SPF)
    Compression mode            : Lossy
    Stream size                 : 88.4 MiB (16%)
    Title                       : Ingles [CinemaniaHDD]
    Language                    : English
    Service kind                : Complete Main
    Default                     : No
    Forced                      : No

    Text #1
    ID                          : 4
    Format                      : UTF-8
    Codec ID                    : S_TEXT/UTF8
    Codec ID/Info               : UTF-8 Plain Text
    Duration                    : 19 min 12 s
    Bit rate                    : 80 b/s
    Count of elements           : 372
    Stream size                 : 11.3 KiB (0%)
    Title                       : Español-SRT [CinemaniaHDD]
    Language                    : Spanish
    Default                     : No
    Forced                      : No

    Text #2
    ID                          : 5
    Format                      : UTF-8
    Codec ID                    : S_TEXT/UTF8
    Codec ID/Info               : UTF-8 Plain Text
    Duration                    : 18 min 50 s
    Bit rate                    : 91 b/s
    Count of elements           : 478
    Stream size                 : 12.6 KiB (0%)
    Title                       : Ingles-SRT [CinemaniaHDD]
    Language                    : English
    Default                     : No
    Forced                      : No

  • Peso: 900 MiB -- 16 GiB -- 21 Chapters

Sinopsis

Descargar Young Sheldon (2019) Temporada 3 NF WEB-DL 1080p Latino. Conozca a un niño genio llamado Sheldon Cooper y su familia. Sheldon, quien parece tener problemas sociales, enfrenta algunos desafíos únicos.
Temporada 3: Sheldon Cooper sigue enfrentándose al duro día a día de ser un pequeño genio en pleno Texas: en el instituto surgen nuevas oportunidades de destacar, pero también de fracasar estrepitosamente, y en casa continúa la pelea sempiterna entre fe y razón en una familia que, pese a sus diferencias, no duda en darlo todo por el pequeño Sheldon.

Español Latino AAC 2.0 NF – Ingles EAC3 5.1 NF

Ficha técnica

Video trailer de la película

Enlaces de descarga

Rip de Bluray

Descargar Young Sheldon (2019) Temporada 3 NF WEB-DL 1080p Latino




Aportes de DPeliculasHDmega la pass es:dpeliculashdmega.org Aportes de CinemaniaHD la pass es:cinemaniahdd.com Aportes recientes:cinemaniahdd.net
Guardado en : Comedia , Familia , Netflix , Series

Películas relacionadas

  • El Oso (2022) Temporada 2 WEB-DL 1080p Latino

    El Oso (2022) Temporada 2 WEB-DL 1080p Latino

    2022
    El Oso (2022) Temporada 2 WEB-DL 1080p Latino

    0h 0m 2022

    Descargar El Oso (2022) Temporada 2 WEB-DL 1080p Latino. Carmy, un joven chef de alta cocina, vuelve...

    Director: Christopher Storer

    Género: Comedia

    Actores: Matty Matheson

  • El Oso (2022) Temporada 1 WEB-DL 1080p Latino

    El Oso (2022) Temporada 1 WEB-DL 1080p Latino

    2022
    El Oso (2022) Temporada 1 WEB-DL 1080p Latino

    0h 0m 2022

    Descargar El Oso (2022) Temporada 1 WEB-DL 1080p Latino. Carmy, un joven chef de alta cocina, vuelve...

    Director: Christopher Storer

    Género: Comedia

    Actores: Matty Matheson

  • The Acolyte (2024) Temporada 1 WEB-DL 1080p Latino

    The Acolyte (2024) Temporada 1 WEB-DL 1080p Latino

    2024
    The Acolyte (2024) Temporada 1 WEB-DL 1080p Latino

    0h 0m 2024

    Descargar The Acolyte (2024) Temporada 1 WEB-DL 1080p Latino. Una investigación sobre una impactante...

    Director: Leslye Headland

    Género: Misterio

    Actores: 이정재

descargar Young Sheldon (2019) Temporada 3 NF WEB-DL 1080p Latino WEBDL 1080p gratis, Young Sheldon (2019) Temporada 3 NF WEB-DL 1080p Latino WEBDL mega 1 link, Young Sheldon (2019) Temporada 3 NF WEB-DL 1080p Latino WEBDL serie completa, descargar Young Sheldon (2019) Temporada 3 NF WEB-DL 1080p Latino WEBDL gratis en mega.

Young Sheldon (2019) Temporada 3 NF WEB-DL 1080p Latino pelicula full hd, Young Sheldon (2019) Temporada 3 NF WEB-DL 1080p Latino mega latino, Young Sheldon (2019) Temporada 3 NF WEB-DL 1080p Latino 4k latino, Young Sheldon (2019) Temporada 3 NF WEB-DL 1080p Latino pelicula completa, Young Sheldon (2019) Temporada 3 NF WEB-DL 1080p Latino descargar gratis, descargar Young Sheldon (2019) Temporada 3 NF WEB-DL 1080p Latino pelicula latino, Young Sheldon (2019) Temporada 3 NF WEB-DL 1080p Latino 1 link mega, Young Sheldon (2019) Temporada 3 NF WEB-DL 1080p Latino 1 link google drive, Young Sheldon (2019) Temporada 3 NF WEB-DL 1080p Latino hd 1080p latino.
Comentarios 0