×

¿Problemas para descargar con Mozilla, EDGE? Deshabilita la opción "Abrir vinculos en una pestaña nueva" tal como lo muestra ésta imagen.

Young Sheldon (2018) Temporada 2 NF WEB-DL 1080p Latino

179 vistas

Información de Young Sheldon (2018) Temporada 2 NF WEB-DL 1080p Latino

Datos de la película

  • Calidad: WEBDL
  • Audio: Se especifica abajo de la Sinopsis
  • Subtitulos: Español Latino SRT
  • Resolución: 1920x1080p
  • Formato: MKV
  • Codec: H.264
  • Encoder: Melkor
  • Mediainfo: Clic para Mostrar Datos Ver
  • Young Sheldon S02E01 (2018) NF WebDL 1080p Latino.mkv
    Format                      : Matroska
    Format version              : Version 4
    File size                   : 773 MiB
    Duration                    : 19 min 17 s
    Overall bit rate mode       : Variable
    Overall bit rate            : 5 602 kb/s
    Movie name                  : Young Sheldon S02E01 - A HighPitched Buzz and Training Wheels  CinemaniaHDD.Net
    Encoded date                : UTC 2023-11-28 22:09:52
    Writing application         : mkvmerge v59.0.0 ('Shining Star') 64-bit
    Writing library             : libebml v1.4.2 + libmatroska v1.6.4
    Attachments                 : CINEMANIAHD.png
    Site                        : CinemaniaHDD.Net
    Uploader                    : Melkor

    Video
    ID                          : 1
    Format                      : AVC
    Format/Info                 : Advanced Video Codec
    Format profile              : High@L4
    Format settings             : CABAC / 4 Ref Frames
    Format settings, CABAC      : Yes
    Format settings, Reference  : 4 frames
    Codec ID                    : V_MPEG4/ISO/AVC
    Duration                    : 19 min 17 s
    Bit rate mode               : Variable
    Bit rate                    : 4 832 kb/s
    Maximum bit rate            : 20.0 Mb/s
    Width                       : 1 920 pixels
    Height                      : 1 080 pixels
    Display aspect ratio        : 16:9
    Frame rate mode             : Constant
    Frame rate                  : 23.976 (24000/1001) FPS
    Color space                 : YUV
    Chroma subsampling          : 4:2:0
    Bit depth                   : 8 bits
    Scan type                   : Progressive
    Bits/(Pixel*Frame)          : 0.097
    Stream size                 : 667 MiB (86%)
    Title                       : WEB HD1080p [CinemaniaHDD]
    Writing library             : x264 core 148 r2724 dbe0335
    Encoding settings           : cabac=1 / ref=4 / deblock=1:0:0 / analyse=0x3:0x111 / me=umh / subme=10 / psy=1 / psy_rd=1.00:0.00 / mixed_ref=1 / me_range=120 / chroma_me=1 / trellis=2 / 8x8dct=1 / cqm=0 / deadzone=21,11 / fast_pskip=1 / chroma_qp_offset=-2 / threads=8 / lookahead_threads=2 / sliced_threads=0 / nr=0 / decimate=1 / interlaced=0 / bluray_compat=0 / stitchable=1 / constrained_intra=0 / bframes=16 / b_pyramid=2 / b_adapt=2 / b_bias=0 / direct=3 / weightb=1 / open_gop=0 / weightp=2 / keyint=240 / keyint_min=121 / scenecut=0 / intra_refresh=0 / rc_lookahead=240 / rc=crf / mbtree=1 / crf=16.0 / qcomp=0.50 / qpmin=6 / qpmax=51 / qpstep=4 / vbv_maxrate=20000 / vbv_bufsize=25000 / crf_max=0.0 / nal_hrd=vbr / filler=0 / ip_ratio=1.40 / aq=1:0.80
    Default                     : Yes
    Forced                      : No

    Audio #1
    ID                          : 2
    Format                      : AAC LC SBR
    Format/Info                 : Advanced Audio Codec Low Complexity with Spectral Band Replication
    Commercial name             : HE-AAC
    Format settings             : Explicit
    Codec ID                    : A_AAC-2
    Duration                    : 19 min 17 s
    Bit rate                    : 128 kb/s
    Channel(s)                  : 2 channels
    Channel layout              : L R
    Sampling rate               : 48.0 kHz
    Frame rate                  : 23.438 FPS (2048 SPF)
    Compression mode            : Lossy
    Stream size                 : 17.7 MiB (2%)
    Title                       : Español Latino [CinemaniaHDD]
    Language                    : Spanish
    Default                     : Yes
    Forced                      : No

    Audio #2
    ID                          : 3
    Format                      : E-AC-3
    Format/Info                 : Enhanced AC-3
    Commercial name             : Dolby Digital Plus
    Codec ID                    : A_EAC3
    Duration                    : 19 min 17 s
    Bit rate mode               : Constant
    Bit rate                    : 640 kb/s
    Channel(s)                  : 6 channels
    Channel layout              : L R C LFE Ls Rs
    Sampling rate               : 48.0 kHz
    Frame rate                  : 31.250 FPS (1536 SPF)
    Compression mode            : Lossy
    Stream size                 : 88.3 MiB (11%)
    Title                       : Ingles [CinemaniaHDD]
    Language                    : English
    Service kind                : Complete Main
    Default                     : No
    Forced                      : No

    Text #1
    ID                          : 4
    Format                      : UTF-8
    Codec ID                    : S_TEXT/UTF8
    Codec ID/Info               : UTF-8 Plain Text
    Duration                    : 1 s 960 ms
    Bit rate                    : 73 b/s
    Count of elements           : 1
    Stream size                 : 18.0 Bytes (0%)
    Title                       : Forzados-SRT [CinemaniaHDD]
    Language                    : Spanish
    Default                     : Yes
    Forced                      : Yes

    Text #2
    ID                          : 5
    Format                      : UTF-8
    Codec ID                    : S_TEXT/UTF8
    Codec ID/Info               : UTF-8 Plain Text
    Duration                    : 18 min 46 s
    Bit rate                    : 77 b/s
    Count of elements           : 350
    Stream size                 : 10.6 KiB (0%)
    Title                       : Español-SRT [CinemaniaHDD]
    Language                    : Spanish
    Default                     : No
    Forced                      : No

    Text #3
    ID                          : 6
    Format                      : UTF-8
    Codec ID                    : S_TEXT/UTF8
    Codec ID/Info               : UTF-8 Plain Text
    Duration                    : 18 min 46 s
    Bit rate                    : 90 b/s
    Count of elements           : 448
    Stream size                 : 12.4 KiB (0%)
    Title                       : Ingles-SRT [CinemaniaHDD]
    Language                    : English
    Default                     : No
    Forced                      : No

  • Peso: 700MiB -- 14.2 GiB -- 22 Chapters

Sinopsis

Descargar Young Sheldon (2018) Temporada 2 NF WEB-DL 1080p Latino. Conozca a un niño genio llamado Sheldon Cooper y su familia. Sheldon, quien parece tener problemas sociales, enfrenta algunos desafíos únicos.
Temporada 2: En la segunda temporada, Sheldon afronta una nueva etapa en su camino a la madurez. Ser un pequeño genio en el este de Texas, en los años 80, no es fácil, menos aun cuando tu padre es el entrenador del equipo de fútbol americano del instituto al que tú entras un año antes de lo que te tocaría.

Español Latino AAC 2.0 NF – Ingles EAC3 5.1 NF

Ficha técnica

Video trailer de la película

Enlaces de descarga

Rip de Bluray

Descargar Young Sheldon (2018) Temporada 2 NF WEB-DL 1080p Latino




Aportes de DPeliculasHDmega la pass es:dpeliculashdmega.org Aportes de CinemaniaHD la pass es:cinemaniahdd.com Aportes recientes:cinemaniahdd.net
Guardado en : Comedia , Familia , Netflix , Series

Películas relacionadas

descargar Young Sheldon (2018) Temporada 2 NF WEB-DL 1080p Latino WEBDL 1080p gratis, Young Sheldon (2018) Temporada 2 NF WEB-DL 1080p Latino WEBDL mega 1 link, Young Sheldon (2018) Temporada 2 NF WEB-DL 1080p Latino WEBDL serie completa, descargar Young Sheldon (2018) Temporada 2 NF WEB-DL 1080p Latino WEBDL gratis en mega.

Young Sheldon (2018) Temporada 2 NF WEB-DL 1080p Latino pelicula full hd, Young Sheldon (2018) Temporada 2 NF WEB-DL 1080p Latino mega latino, Young Sheldon (2018) Temporada 2 NF WEB-DL 1080p Latino 4k latino, Young Sheldon (2018) Temporada 2 NF WEB-DL 1080p Latino pelicula completa, Young Sheldon (2018) Temporada 2 NF WEB-DL 1080p Latino descargar gratis, descargar Young Sheldon (2018) Temporada 2 NF WEB-DL 1080p Latino pelicula latino, Young Sheldon (2018) Temporada 2 NF WEB-DL 1080p Latino 1 link mega, Young Sheldon (2018) Temporada 2 NF WEB-DL 1080p Latino 1 link google drive, Young Sheldon (2018) Temporada 2 NF WEB-DL 1080p Latino hd 1080p latino.
Comentarios 0