×

¿Problemas para descargar con Mozilla, EDGE? Deshabilita la opción "Abrir vinculos en una pestaña nueva" tal como lo muestra ésta imagen.

Young Royals (2021) Primera Temporada NF WEB-DL 1080p Latino

181 vistas

Información de Young Royals (2021) Primera Temporada NF WEB-DL 1080p Latino

Datos de la película

  • Calidad: 1080p
  • Audio: Español Latino AC3 5.1 WEB-DL - Ingles AC3 5.1 WEB-DL
  • Subtitulos: Español Latino SRT- FORZADOS SRT
  • Resolución: 1920x1080
  • Formato: MKV
  • Codec: H.264
  • Encoder: cinemaniahdd
  • Mediainfo: Clic para Mostrar Datos Ver
  • Young Royals T01E01 NF WEB-DL 1080p Latino [CNMNHDD].mkv
    Format                      : Matroska
    Format version              : Version 4
    File size                   : 1.36 GiB
    Duration                    : 42 min 58 s
    Overall bit rate mode       : Variable
    Overall bit rate            : 4 539 kb/s
    Movie name                  : Young Royals T01E01 - CinemaniaHDD.Net
    Encoded date                : UTC 2021-07-01 22:50:47
    Writing application         : mkvmerge v43.0.0 ('The Quartermaster') 64-bit
    Writing library             : libebml v1.3.10 + libmatroska v1.5.2

    Video
    ID                          : 1
    Format                      : AVC
    Format/Info                 : Advanced Video Codec
    Format profile              : Main@L4
    Format settings             : CABAC / 3 Ref Frames
    Format settings, CABAC      : Yes
    Format settings, Reference  : 3 frames
    Codec ID                    : V_MPEG4/ISO/AVC
    Duration                    : 42 min 58 s
    Bit rate mode               : Variable
    Bit rate                    : 3 769 kb/s
    Nominal bit rate            : 4 420 kb/s
    Maximum bit rate            : 6 630 kb/s
    Width                       : 1 920 pixels
    Height                      : 1 080 pixels
    Display aspect ratio        : 16:9
    Frame rate mode             : Constant
    Frame rate                  : 24.000 FPS
    Color space                 : YUV
    Chroma subsampling          : 4:2:0
    Bit depth                   : 8 bits
    Scan type                   : Progressive
    Bits/(Pixel*Frame)          : 0.076
    Stream size                 : 1.13 GiB (83%)
    Title                       : CinemaniaHDD
    Writing library             : x264 core 148 r2722 1b0121b
    Encoding settings           : cabac=1 / ref=3 / deblock=1:0:0 / analyse=0x1:0x111 / me=umh / subme=10 / psy=1 / psy_rd=1.00:0.00 / mixed_ref=1 / me_range=24 / chroma_me=1 / trellis=2 / 8x8dct=0 / cqm=0 / deadzone=21,11 / fast_pskip=1 / chroma_qp_offset=-2 / threads=8 / lookahead_threads=1 / sliced_threads=0 / nr=0 / decimate=1 / interlaced=0 / bluray_compat=0 / stitchable=1 / constrained_intra=0 / bframes=2 / b_pyramid=0 / b_adapt=2 / b_bias=0 / direct=3 / weightb=1 / open_gop=0 / weightp=2 / keyint=250 / keyint_min=24 / scenecut=0 / intra_refresh=0 / rc_lookahead=48 / rc=2pass / mbtree=1 / bitrate=4420 / ratetol=1.0 / qcomp=0.50 / qpmin=6 / qpmax=51 / qpstep=4 / cplxblur=20.0 / qblur=0.5 / vbv_maxrate=6630 / vbv_bufsize=8840 / nal_hrd=vbr / filler=0 / ip_ratio=1.40 / aq=1:1.00
    Default                     : Yes
    Forced                      : No

    Audio #1
    ID                          : 2
    Format                      : AC-3
    Format/Info                 : Audio Coding 3
    Commercial name             : Dolby Digital
    Codec ID                    : A_AC3
    Duration                    : 42 min 58 s
    Bit rate mode               : Constant
    Bit rate                    : 384 kb/s
    Channel(s)                  : 6 channels
    Channel layout              : L R C LFE Ls Rs
    Sampling rate               : 48.0 kHz
    Frame rate                  : 31.250 FPS (1536 SPF)
    Compression mode            : Lossy
    Stream size                 : 118 MiB (8%)
    Title                       : Español latino [CinemaniaHDD]
    Language                    : Spanish
    Service kind                : Complete Main
    Default                     : Yes
    Forced                      : No

    Audio #2
    ID                          : 3
    Format                      : AC-3
    Format/Info                 : Audio Coding 3
    Commercial name             : Dolby Digital
    Codec ID                    : A_AC3
    Duration                    : 42 min 58 s
    Bit rate mode               : Constant
    Bit rate                    : 384 kb/s
    Channel(s)                  : 6 channels
    Channel layout              : L R C LFE Ls Rs
    Sampling rate               : 48.0 kHz
    Frame rate                  : 31.250 FPS (1536 SPF)
    Compression mode            : Lossy
    Stream size                 : 118 MiB (8%)
    Title                       : Inglés [CinemaniaHDD]
    Language                    : English
    Service kind                : Complete Main
    Default                     : No
    Forced                      : No

    Text #1
    ID                          : 4
    Format                      : UTF-8
    Codec ID                    : S_TEXT/UTF8
    Codec ID/Info               : UTF-8 Plain Text
    Duration                    : 41 min 25 s
    Bit rate                    : 4 b/s
    Count of elements           : 34
    Stream size                 : 1.35 KiB (0%)
    Title                       : Forzados [CinemaniaHDD]
    Language                    : Spanish
    Default                     : Yes
    Forced                      : Yes

    Text #2
    ID                          : 5
    Format                      : UTF-8
    Codec ID                    : S_TEXT/UTF8
    Codec ID/Info               : UTF-8 Plain Text
    Duration                    : 41 min 25 s
    Bit rate                    : 52 b/s
    Count of elements           : 513
    Stream size                 : 16.0 KiB (0%)
    Title                       : Español latino [CinemaniaHDD]
    Language                    : Spanish
    Default                     : No
    Forced                      : No

     

  • Peso: 1.36 GiB Aprox ---- 7.5 GiB in 6 Chapters.

Sinopsis

El príncipe Wilhelm se adapta a la vida en el prestigioso internado Hillerska. Allí se da cuenta que seguir su corazón es más difícil de lo que había pensado.

Ficha técnica

Video trailer de la película

Enlaces de descarga

Rip de Bluray

Descargar Young Royals (2021) Primera Temporada NF WEB-DL 1080p Latino




Aportes de DPeliculasHDmega la pass es:dpeliculashdmega.org Aportes de CinemaniaHD la pass es:cinemaniahdd.com
Guardado en : Drama , Netflix , Series

Películas relacionadas

descargar Young Royals (2021) Primera Temporada NF WEB-DL 1080p Latino 1080p 1080p gratis, Young Royals (2021) Primera Temporada NF WEB-DL 1080p Latino 1080p mega 1 link, Young Royals (2021) Primera Temporada NF WEB-DL 1080p Latino 1080p serie completa, descargar Young Royals (2021) Primera Temporada NF WEB-DL 1080p Latino 1080p gratis en mega.

Young Royals (2021) Primera Temporada NF WEB-DL 1080p Latino pelicula full hd, Young Royals (2021) Primera Temporada NF WEB-DL 1080p Latino mega latino, Young Royals (2021) Primera Temporada NF WEB-DL 1080p Latino 4k latino, Young Royals (2021) Primera Temporada NF WEB-DL 1080p Latino pelicula completa, Young Royals (2021) Primera Temporada NF WEB-DL 1080p Latino descargar gratis, descargar Young Royals (2021) Primera Temporada NF WEB-DL 1080p Latino pelicula latino, Young Royals (2021) Primera Temporada NF WEB-DL 1080p Latino 1 link mega, Young Royals (2021) Primera Temporada NF WEB-DL 1080p Latino 1 link google drive, Young Royals (2021) Primera Temporada NF WEB-DL 1080p Latino hd 1080p latino.
Comentarios 0