×

¿Problemas para descargar con Mozilla, EDGE? Deshabilita la opción "Abrir vinculos en una pestaña nueva" tal como lo muestra ésta imagen.

James Bond: Sólo se vive dos veces (1967) REMUX 1080p Latino

410 vistas

Información de James Bond: Sólo se vive dos veces (1967) REMUX 1080p Latino

Datos de la película

  • Calidad: Full 1080p
  • Audio: Español Latino AC3 5.1 BLURAY - Ingles DTS 5.1 BLURAY
  • Subtitulos: Español Latino PGS - Ingles PGS
  • Resolución: 1920x1080p
  • Formato: MKV
  • Codec: H.264
  • Encoder: CinefiloCool
  • Mediainfo: Clic para Mostrar Datos Ver
  • 007 Solo Se Vive Dos Veces (1967) REMUX 1080p Latino-CMHDD.mkv
    Format                      : Matroska
    Format version              : Version 4
    File size                   : 25.5 GiB
    Duration                    : 1 h 56 min
    Overall bit rate mode       : Variable
    Overall bit rate            : 31.2 Mb/s
    Movie name                  : You Only Live Twice (1967) CinemaniaHDD.Net
    Encoded date                : UTC 2020-05-28 06:35:34
    Writing application         : mkvmerge v46.0.0 ('No Deeper Escape') 64-bit
    Writing library             : libebml v1.3.10 + libmatroska v1.5.2
    Attachments                 : CINEMANIAHD.png

    Video
    ID                          : 1
    ID in the original source m : 4113 (0x1011)
    Format                      : AVC
    Format/Info                 : Advanced Video Codec
    Format profile              : High@L4.1
    Format settings             : CABAC / 4 Ref Frames
    Format settings, CABAC      : Yes
    Format settings, Reference  : 4 frames
    Codec ID                    : V_MPEG4/ISO/AVC
    Duration                    : 1 h 56 min
    Bit rate mode               : Variable
    Bit rate                    : 26.9 Mb/s
    Maximum bit rate            : 35.0 Mb/s
    Width                       : 1 920 pixels
    Height                      : 1 080 pixels
    Display aspect ratio        : 16:9
    Frame rate mode             : Constant
    Frame rate                  : 23.976 (24000/1001) FPS
    Color space                 : YUV
    Chroma subsampling          : 4:2:0
    Bit depth                   : 8 bits
    Scan type                   : Progressive
    Bits/(Pixel*Frame)          : 0.541
    Stream size                 : 22.0 GiB (86%)
    Title                       : REMUX 1080p [CinemaniaHDD]
    Default                     : Yes
    Forced                      : No
    Original source medium      : Blu-ray

    Audio #1
    ID                          : 2
    ID in the original source m : 4354 (0x1102)
    Format                      : AC-3
    Format/Info                 : Audio Coding 3
    Commercial name             : Dolby Digital
    Codec ID                    : A_AC3
    Duration                    : 1 h 56 min
    Bit rate mode               : Constant
    Bit rate                    : 448 kb/s
    Channel(s)                  : 6 channels
    Channel layout              : L R C LFE Ls Rs
    Sampling rate               : 48.0 kHz
    Frame rate                  : 31.250 FPS (1536 SPF)
    Compression mode            : Lossy
    Stream size                 : 375 MiB (1%)
    Title                       : Español Latino [CinemaniaHDD]
    Language                    : Spanish
    Service kind                : Complete Main
    Default                     : Yes
    Forced                      : No
    Original source medium      : Blu-ray

    Audio #2
    ID                          : 3
    ID in the original source m : 4352 (0x1100)
    Format                      : DTS XLL
    Format/Info                 : Digital Theater Systems
    Commercial name             : DTS-HD Master Audio
    Codec ID                    : A_DTS
    Duration                    : 1 h 56 min
    Bit rate mode               : Variable
    Bit rate                    : 3 861 kb/s
    Channel(s)                  : 6 channels
    Channel layout              : C L R Ls Rs LFE
    Sampling rate               : 48.0 kHz
    Frame rate                  : 93.750 FPS (512 SPF)
    Bit depth                   : 24 bits
    Compression mode            : Lossless
    Stream size                 : 3.15 GiB (12%)
    Title                       : Ingles [CinemaniaHDD]
    Language                    : English
    Default                     : No
    Forced                      : No
    Original source medium      : Blu-ray

    Text #1
    ID                          : 4
    Format                      : PGS
    Muxing mode                 : zlib
    Codec ID                    : S_HDMV/PGS
    Codec ID/Info               : Picture based subtitle format used on BDs/HD-DVDs
    Duration                    : 1 h 42 min
    Bit rate                    : 148 b/s
    Count of elements           : 18
    Stream size                 : 111 KiB (0%)
    Title                       : Forzados-PGS [CinemaniaHDD]
    Language                    : Spanish
    Default                     : Yes
    Forced                      : No

    Text #2
    ID                          : 5
    ID in the original source m : 4609 (0x1201)
    Format                      : PGS
    Muxing mode                 : zlib
    Codec ID                    : S_HDMV/PGS
    Codec ID/Info               : Picture based subtitle format used on BDs/HD-DVDs
    Duration                    : 1 h 56 min
    Bit rate                    : 24.1 kb/s
    Count of elements           : 1682
    Stream size                 : 20.0 MiB (0%)
    Title                       : Español-PGS [CinemaniaHDD]
    Language                    : Spanish
    Default                     : No
    Forced                      : No
    Original source medium      : Blu-ray

    Text #3
    ID                          : 6
    ID in the original source m : 4608 (0x1200)
    Format                      : PGS
    Muxing mode                 : zlib
    Codec ID                    : S_HDMV/PGS
    Codec ID/Info               : Picture based subtitle format used on BDs/HD-DVDs
    Duration                    : 1 h 56 min
    Bit rate                    : 24.2 kb/s
    Count of elements           : 2002
    Stream size                 : 20.2 MiB (0%)
    Title                       : Ingles-PGS [CinemaniaHDD]
    Language                    : English
    Default                     : No
    Forced                      : No
    Original source medium      : Blu-ray

    Text #4
    ID                          : 7
    Format                      : UTF-8
    Codec ID                    : S_TEXT/UTF8
    Codec ID/Info               : UTF-8 Plain Text
    Duration                    : 51 min 46 s
    Bit rate                    : 0 b/s
    Count of elements           : 9
    Stream size                 : 176 Bytes (0%)
    Title                       : Forzados-SRT [CinemaniaHDD]
    Language                    : Spanish
    Default                     : No
    Forced                      : No

    Text #5
    ID                          : 8
    Format                      : UTF-8
    Codec ID                    : S_TEXT/UTF8
    Codec ID/Info               : UTF-8 Plain Text
    Duration                    : 1 h 54 min
    Bit rate                    : 40 b/s
    Count of elements           : 839
    Stream size                 : 33.8 KiB (0%)
    Title                       : Español-SRT [CinemaniaHDD]
    Language                    : Spanish
    Default                     : No
    Forced                      : No

    Menu
    00:00:00.000                : en:Chapter 01
    00:05:02.093                : en:Chapter 02
    00:06:10.536                : en:Chapter 03
    00:08:54.075                : en:Chapter 04
    00:11:49.375                : en:Chapter 05
    00:15:23.088                : en:Chapter 06
    00:19:25.914                : en:Chapter 07
    00:24:18.915                : en:Chapter 08
    00:28:19.656                : en:Chapter 09
    00:31:28.720                : en:Chapter 10
    00:33:09.112                : en:Chapter 11
    00:36:14.589                : en:Chapter 12
    00:40:48.070                : en:Chapter 13
    00:44:17.821                : en:Chapter 14
    00:46:59.817                : en:Chapter 15
    00:51:13.779                : en:Chapter 16
    00:54:37.274                : en:Chapter 17
    00:58:58.701                : en:Chapter 18
    01:03:27.845                : en:Chapter 19
    01:09:01.971                : en:Chapter 20
    01:12:26.717                : en:Chapter 21
    01:14:07.067                : en:Chapter 22
    01:17:33.649                : en:Chapter 23
    01:20:25.904                : en:Chapter 24
    01:24:25.685                : en:Chapter 25
    01:28:42.734                : en:Chapter 26
    01:34:54.647                : en:Chapter 27
    01:35:49.994                : en:Chapter 28
    01:38:13.178                : en:Chapter 29
    01:44:26.301                : en:Chapter 30
    01:48:19.534                : en:Chapter 31
    01:53:25.507                : en:Chapter 32

  • Peso: 25.5 GiB

Sinopsis

Descargar James Bond: Sólo se vive dos veces (1967) REMUX 1080p Latino. Dos naves espaciales, una norteamericana y otra rusa, han sido secuestradas en la órbita terrestre. Todo depende ahora de la intervención del Agente 007 -Sean Connery- para prevenir una guerra nuclear entre las dos superpotencias. Su misión consistirá en viajar hasta Japón y desenmascarar a la peligrosa organización Spectra y a su diabólico líder, Ernest Stavro Blofeld -Donald Pleasence.

Ficha técnica

Video trailer de la película

Enlaces de descarga

Rip de Bluray

Descargar James Bond: Sólo se vive dos veces (1967) REMUX 1080p Latino




Aportes de DPeliculasHDmega la pass es:dpeliculashdmega.org Aportes de CinemaniaHD la pass es:cinemaniahdd.com
Guardado en : Acción , Aventura , Remux , Suspenso

Películas relacionadas

  • DC Liga De Supermascotas (2022) HD 1080p Latino

    DC Liga De Supermascotas (2022) HD 1080p Latino

    2022
    DC Liga De Supermascotas (2022) HD 1080p Latino

    1h 45m 2022

    Descargar DC Liga De Supermascotas (2022) HD 1080p Latino. Krypto el Superperro y Superman son amigos...

    Director: Sam Levine

    Género: Acción

    Actores: Yvette Nicole Brown

  • Invitacion Al Infierno (2022) MA WEB-DL 1080p Latino

    Invitacion Al Infierno (2022) MA WEB-DL 1080p Latino

    2022
    Invitacion Al Infierno (2022) MA WEB-DL 1080p Latino

    1h 45m 2022

    Descargar Invitacion Al Infierno (2022) MA WEB-DL 1080p Latino. Tras la muerte de su madre y quedarse...

    Director: Jessica M. Thompson

    Género: Suspenso

    Actores: Virág Bárány

  • Tremors (1990) REMUX 4K HDR Latino – CMHDD

    Tremors (1990) REMUX 4K HDR Latino – CMHDD

    1990
    Tremors (1990) REMUX 4K HDR Latino – CMHDD

    1h 35m 1990

    En Perfección, un pequeño pueblo al borde del desierto de Nevada, algo parece suceder debajo de la...

    Director: Susan Bierbaum

    Género: Acción

    Actores: Victor Wong

descargar James Bond: Sólo se vive dos veces (1967) REMUX 1080p Latino Full 1080p 1080p gratis, James Bond: Sólo se vive dos veces (1967) REMUX 1080p Latino Full 1080p mega 1 link, James Bond: Sólo se vive dos veces (1967) REMUX 1080p Latino Full 1080p pelicula completa, descargar James Bond: Sólo se vive dos veces (1967) REMUX 1080p Latino Full 1080p gratis en mega.

James Bond: Sólo se vive dos veces (1967) REMUX 1080p Latino pelicula full hd, James Bond: Sólo se vive dos veces (1967) REMUX 1080p Latino mega latino, James Bond: Sólo se vive dos veces (1967) REMUX 1080p Latino 4k latino, James Bond: Sólo se vive dos veces (1967) REMUX 1080p Latino pelicula completa, James Bond: Sólo se vive dos veces (1967) REMUX 1080p Latino descargar gratis, descargar James Bond: Sólo se vive dos veces (1967) REMUX 1080p Latino pelicula latino, James Bond: Sólo se vive dos veces (1967) REMUX 1080p Latino 1 link mega, James Bond: Sólo se vive dos veces (1967) REMUX 1080p Latino 1 link google drive, James Bond: Sólo se vive dos veces (1967) REMUX 1080p Latino hd 1080p latino.
Comentarios 0