×

¿Problemas para descargar con Mozilla, EDGE? Deshabilita la opción "Abrir vinculos en una pestaña nueva" tal como lo muestra ésta imagen.

James Bond: Sólo se vive dos veces (1967) 1080p Latino

489 vistas

Información de James Bond: Sólo se vive dos veces (1967) 1080p Latino

Datos de la película

  • Calidad: 1080p
  • Audio: Español Latino AC3 5.1 BLURAY - Ingles AC3 5.1 BLURAY
  • Subtitulos: Español Latino SRT - Ingles SRT
  • Resolución: 1920x818p
  • Formato: MKV
  • Codec: H.264
  • Encoder: CinefiloCool
  • Mediainfo: Clic para Mostrar Datos Ver
  • 007 Solo Se Vive Dos Veces (1967) 1080p Latino-CMHDD.mkv
    Format                      : Matroska
    Format version              : Version 4
    File size                   : 4.24 GiB
    Duration                    : 1 h 56 min
    Overall bit rate mode       : Variable
    Overall bit rate            : 5 186 kb/s
    Movie name                  : You Only Live Twice (1967) CinemaniaHDD.Net
    Encoded date                : UTC 2020-05-28 06:44:19
    Writing application         : mkvmerge v46.0.0 ('No Deeper Escape') 64-bit
    Writing library             : libebml v1.3.10 + libmatroska v1.5.2
    Attachments                 : CINEMANIAHD.png

    Video
    ID                          : 1
    Format                      : AVC
    Format/Info                 : Advanced Video Codec
    Format profile              : High@L4
    Format settings             : CABAC / 3 Ref Frames
    Format settings, CABAC      : Yes
    Format settings, Reference  : 3 frames
    Codec ID                    : V_MPEG4/ISO/AVC
    Duration                    : 1 h 56 min
    Bit rate mode               : Variable
    Bit rate                    : 4 096 kb/s
    Width                       : 1 920 pixels
    Height                      : 818 pixels
    Display aspect ratio        : 2.35:1
    Frame rate mode             : Constant
    Frame rate                  : 23.976 (24000/1001) FPS
    Color space                 : YUV
    Chroma subsampling          : 4:2:0
    Bit depth                   : 8 bits
    Scan type                   : Progressive
    Bits/(Pixel*Frame)          : 0.109
    Stream size                 : 3.35 GiB (79%)
    Title                       : HD1080p [CinemaniaHDD]
    Writing library             : x264 core 142 r2479 dd79a61
    Encoding settings           : cabac=1 / ref=3 / deblock=1:0:0 / analyse=0x3:0x113 / me=hex / subme=7 / psy=1 / psy_rd=1.00:0.00 / mixed_ref=1 / me_range=16 / chroma_me=1 / trellis=1 / 8x8dct=1 / cqm=0 / deadzone=21,11 / fast_pskip=1 / chroma_qp_offset=-2 / threads=6 / lookahead_threads=1 / sliced_threads=0 / nr=0 / decimate=1 / interlaced=0 / bluray_compat=0 / constrained_intra=0 / bframes=3 / b_pyramid=0 / b_adapt=1 / b_bias=0 / direct=1 / weightb=1 / open_gop=0 / weightp=2 / keyint=240 / keyint_min=24 / scenecut=40 / intra_refresh=0 / rc_lookahead=40 / rc=2pass / mbtree=1 / bitrate=4096 / ratetol=1.0 / qcomp=0.60 / qpmin=0 / qpmax=69 / qpstep=4 / cplxblur=20.0 / qblur=0.5 / vbv_maxrate=25000 / vbv_bufsize=25000 / nal_hrd=vbr / filler=0 / ip_ratio=1.40 / aq=1:1.00
    Default                     : Yes
    Forced                      : No

    Audio #1
    ID                          : 2
    ID in the original source m : 4354 (0x1102)
    Format                      : AC-3
    Format/Info                 : Audio Coding 3
    Commercial name             : Dolby Digital
    Codec ID                    : A_AC3
    Duration                    : 1 h 56 min
    Bit rate mode               : Constant
    Bit rate                    : 448 kb/s
    Channel(s)                  : 6 channels
    Channel layout              : L R C LFE Ls Rs
    Sampling rate               : 48.0 kHz
    Frame rate                  : 31.250 FPS (1536 SPF)
    Compression mode            : Lossy
    Stream size                 : 375 MiB (9%)
    Title                       : Español Latino [CinemaniaHDD]
    Language                    : Spanish
    Service kind                : Complete Main
    Default                     : Yes
    Forced                      : No
    Original source medium      : Blu-ray

    Audio #2
    ID                          : 3
    Format                      : AC-3
    Format/Info                 : Audio Coding 3
    Commercial name             : Dolby Digital
    Codec ID                    : A_AC3
    Duration                    : 1 h 56 min
    Bit rate mode               : Constant
    Bit rate                    : 640 kb/s
    Channel(s)                  : 6 channels
    Channel layout              : L R C LFE Ls Rs
    Sampling rate               : 48.0 kHz
    Frame rate                  : 31.250 FPS (1536 SPF)
    Compression mode            : Lossy
    Stream size                 : 535 MiB (12%)
    Title                       : Ingles [CinemaniaHDD]
    Language                    : English
    Service kind                : Complete Main
    Default                     : No
    Forced                      : No

    Text #1
    ID                          : 4
    Format                      : UTF-8
    Codec ID                    : S_TEXT/UTF8
    Codec ID/Info               : UTF-8 Plain Text
    Duration                    : 51 min 46 s
    Bit rate                    : 0 b/s
    Count of elements           : 9
    Stream size                 : 176 Bytes (0%)
    Title                       : Forzados-SRT [CinemaniaHDD]
    Language                    : Spanish
    Default                     : Yes
    Forced                      : No

    Text #2
    ID                          : 5
    Format                      : UTF-8
    Codec ID                    : S_TEXT/UTF8
    Codec ID/Info               : UTF-8 Plain Text
    Duration                    : 1 h 54 min
    Bit rate                    : 40 b/s
    Count of elements           : 839
    Stream size                 : 33.8 KiB (0%)
    Title                       : Español-SRT [CinemaniaHDD]
    Language                    : Spanish
    Default                     : No
    Forced                      : No

    Text #3
    ID                          : 6
    Format                      : UTF-8
    Codec ID                    : S_TEXT/UTF8
    Codec ID/Info               : UTF-8 Plain Text
    Duration                    : 1 h 55 min
    Bit rate                    : 35 b/s
    Count of elements           : 897
    Stream size                 : 30.1 KiB (0%)
    Title                       : Ingles-SRT [CinemaniaHDD]
    Language                    : English
    Default                     : No
    Forced                      : No

    Menu
    00:00:00.000                : en:Chapter 01
    00:05:02.093                : en:Chapter 02
    00:06:10.536                : en:Chapter 03
    00:08:54.075                : en:Chapter 04
    00:11:49.375                : en:Chapter 05
    00:15:23.088                : en:Chapter 06
    00:19:25.914                : en:Chapter 07
    00:24:18.915                : en:Chapter 08
    00:28:19.656                : en:Chapter 09
    00:31:28.720                : en:Chapter 10
    00:33:09.112                : en:Chapter 11
    00:36:14.589                : en:Chapter 12
    00:40:48.070                : en:Chapter 13
    00:44:17.821                : en:Chapter 14
    00:46:59.817                : en:Chapter 15
    00:51:13.779                : en:Chapter 16
    00:54:37.274                : en:Chapter 17
    00:58:58.701                : en:Chapter 18
    01:03:27.845                : en:Chapter 19
    01:09:01.971                : en:Chapter 20
    01:12:26.717                : en:Chapter 21
    01:14:07.067                : en:Chapter 22
    01:17:33.649                : en:Chapter 23
    01:20:25.904                : en:Chapter 24
    01:24:25.685                : en:Chapter 25
    01:28:42.734                : en:Chapter 26
    01:34:54.647                : en:Chapter 27
    01:35:49.994                : en:Chapter 28
    01:38:13.178                : en:Chapter 29
    01:44:26.301                : en:Chapter 30
    01:48:19.534                : en:Chapter 31
    01:53:25.507                : en:Chapter 32

  • Peso: 4.24 GiB

Sinopsis

Descargar James Bond: Sólo se vive dos veces (1967) 1080p Latino. Dos naves espaciales, una norteamericana y otra rusa, han sido secuestradas en la órbita terrestre. Todo depende ahora de la intervención del Agente 007 -Sean Connery- para prevenir una guerra nuclear entre las dos superpotencias. Su misión consistirá en viajar hasta Japón y desenmascarar a la peligrosa organización Spectra y a su diabólico líder, Ernest Stavro Blofeld -Donald Pleasence.

Ficha técnica

Video trailer de la película

Enlaces de descarga

Rip de Bluray

Descargar James Bond: Sólo se vive dos veces (1967) 1080p Latino




Aportes de DPeliculasHDmega la pass es:dpeliculashdmega.org Aportes de CinemaniaHD la pass es:cinemaniahdd.com
Guardado en : Acción , Aventura , HD 1080p , Suspenso

Películas relacionadas

descargar James Bond: Sólo se vive dos veces (1967) 1080p Latino 1080p 1080p gratis, James Bond: Sólo se vive dos veces (1967) 1080p Latino 1080p mega 1 link, James Bond: Sólo se vive dos veces (1967) 1080p Latino 1080p pelicula completa, descargar James Bond: Sólo se vive dos veces (1967) 1080p Latino 1080p gratis en mega.

James Bond: Sólo se vive dos veces (1967) 1080p Latino pelicula full hd, James Bond: Sólo se vive dos veces (1967) 1080p Latino mega latino, James Bond: Sólo se vive dos veces (1967) 1080p Latino 4k latino, James Bond: Sólo se vive dos veces (1967) 1080p Latino pelicula completa, James Bond: Sólo se vive dos veces (1967) 1080p Latino descargar gratis, descargar James Bond: Sólo se vive dos veces (1967) 1080p Latino pelicula latino, James Bond: Sólo se vive dos veces (1967) 1080p Latino 1 link mega, James Bond: Sólo se vive dos veces (1967) 1080p Latino 1 link google drive, James Bond: Sólo se vive dos veces (1967) 1080p Latino hd 1080p latino.
Comentarios 0