×

¿Problemas para descargar con Mozilla, EDGE? Deshabilita la opción "Abrir vinculos en una pestaña nueva" tal como lo muestra ésta imagen.

You (2018-2023) [NF] WEB-DL 1080p Latino – CMHDD

69 vistas

Información de You (2018-2023) [NF] WEB-DL 1080p Latino – CMHDD

Datos de la película

  • Calidad: WEBDL
  • Audio: Español Latino E-AC3 5.1 Netflix - Ingles E-AC3 5.1 Netflix
  • Subtitulos: Español Latino SRT- FORZADOS SRT
  • Resolución: 19201080p
  • Formato: MKV
  • Codec: H.264
  • Encoder: Dracarys
  • Mediainfo: Clic para Mostrar Datos Ver
  • Format                      : Matroska
    Format version              : Version 4
    File size                   : 2.12 GiB
    Duration                    : 48 min 57 s
    Overall bit rate mode       : Variable
    Overall bit rate            : 6 185 kb/s
    Movie name                  : You (2018) [S01E01] WEB-DL 1080p Latino - CMHDD
    Encoded date                : UTC 2024-01-18 22:36:42
    Writing application         : mkvmerge v47.0.0 ('Black Flag') 64-bit
    Writing library             : libebml v1.3.10 + libmatroska v1.5.2

    Video
    ID                          : 1
    Format                      : AVC
    Format/Info                 : Advanced Video Codec
    Format profile              : Main@L4
    Format settings             : CABAC / 3 Ref Frames
    Format settings, CABAC      : Yes
    Format settings, Reference  : 3 frames
    Codec ID                    : V_MPEG4/ISO/AVC
    Duration                    : 48 min 57 s
    Bit rate mode               : Variable
    Bit rate                    : 5 000 kb/s
    Maximum bit rate            : 7 500 kb/s
    Width                       : 1 920 pixels
    Height                      : 1 080 pixels
    Display aspect ratio        : 16:9
    Frame rate mode             : Constant
    Frame rate                  : 23.976 (24000/1001) FPS
    Color space                 : YUV
    Chroma subsampling          : 4:2:0
    Bit depth                   : 8 bits
    Scan type                   : Progressive
    Bits/(Pixel*Frame)          : 0.101
    Stream size                 : 1.68 GiB (79%)
    Writing library             : x264 core 148 r2727 7d026e8
    Encoding settings           : cabac=1 / ref=3 / deblock=1:0:0 / analyse=0x1:0x111 / me=umh / subme=10 / psy=1 / psy_rd=1.00:0.00 / mixed_ref=1 / me_range=24 / chroma_me=1 / trellis=2 / 8x8dct=0 / cqm=0 / deadzone=21,11 / fast_pskip=1 / chroma_qp_offset=-2 / threads=6 / lookahead_threads=1 / sliced_threads=0 / nr=0 / decimate=1 / interlaced=0 / bluray_compat=0 / stitchable=1 / constrained_intra=0 / bframes=2 / b_pyramid=0 / b_adapt=2 / b_bias=0 / direct=3 / weightb=1 / open_gop=0 / weightp=2 / keyint=240 / keyint_min=121 / scenecut=0 / intra_refresh=0 / rc_lookahead=48 / rc=2pass / mbtree=1 / bitrate=5000 / ratetol=1.0 / qcomp=0.50 / qpmin=6 / qpmax=51 / qpstep=4 / cplxblur=20.0 / qblur=0.5 / vbv_maxrate=7500 / vbv_bufsize=10000 / nal_hrd=vbr / filler=0 / ip_ratio=1.40 / aq=1:1.00
    Default                     : Yes
    Forced                      : No

    Audio #1
    ID                          : 2
    Format                      : E-AC-3
    Format/Info                 : Enhanced AC-3
    Commercial name             : Dolby Digital Plus
    Codec ID                    : A_EAC3
    Duration                    : 48 min 57 s
    Bit rate mode               : Constant
    Bit rate                    : 640 kb/s
    Channel(s)                  : 6 channels
    Channel layout              : L R C LFE Ls Rs
    Sampling rate               : 48.0 kHz
    Frame rate                  : 31.250 FPS (1536 SPF)
    Compression mode            : Lossy
    Stream size                 : 224 MiB (10%)
    Language                    : Spanish
    Service kind                : Complete Main
    Default                     : Yes
    Forced                      : No

    Audio #2
    ID                          : 3
    Format                      : E-AC-3
    Format/Info                 : Enhanced AC-3
    Commercial name             : Dolby Digital Plus
    Codec ID                    : A_EAC3
    Duration                    : 48 min 57 s
    Bit rate mode               : Constant
    Bit rate                    : 640 kb/s
    Channel(s)                  : 6 channels
    Channel layout              : L R C LFE Ls Rs
    Sampling rate               : 48.0 kHz
    Frame rate                  : 31.250 FPS (1536 SPF)
    Compression mode            : Lossy
    Stream size                 : 224 MiB (10%)
    Language                    : English
    Service kind                : Complete Main
    Default                     : No
    Forced                      : No

    Text #1
    ID                          : 4
    Format                      : UTF-8
    Codec ID                    : S_TEXT/UTF8
    Codec ID/Info               : UTF-8 Plain Text
    Duration                    : 47 min 46 s
    Bit rate                    : 0 b/s
    Frame rate                  : 0.003 FPS
    Count of elements           : 9
    Stream size                 : 324 Bytes (0%)
    Title                       : Forzados
    Language                    : Spanish
    Default                     : Yes
    Forced                      : Yes

    Text #2
    ID                          : 5
    Format                      : UTF-8
    Codec ID                    : S_TEXT/UTF8
    Codec ID/Info               : UTF-8 Plain Text
    Duration                    : 47 min 17 s
    Bit rate                    : 87 b/s
    Frame rate                  : 0.267 FPS
    Count of elements           : 759
    Stream size                 : 30.1 KiB (0%)
    Title                       : Completos
    Language                    : Spanish
    Default                     : No
    Forced                      : No

     

  • Peso: 83,1 GiB

Sinopsis

You es una historia de amor del siglo XXI. Las cartas, miradas, notas y sonrisas son cosa del pasado, ahora se liga a través de internet. Joe Goldberg es un administrador de librería de unos 25 años, un día se topa con una aspirante a escritora de la que queda prendado. Ella es perfecta para Joe y este no duda en buscar una forma de acercarse a ella.

Para ello, la era digital será su mejor aliada y a través de las redes sociales intentará que se enamore de él. Casi enfermizo, la obsesión de Joe a través de las herramientas sociales le lleva a eliminar cualquier inconveniente u obstáculo para lograr el acercamiento a ella. La ficción es un recorrido desde la pasión hasta la obsesión más desmesurada.

Ficha técnica

Video trailer de la película

Enlaces de descarga

Rip de Bluray

Descargar You (2018-2023) [NF] WEB-DL 1080p Latino – CMHDD




Aportes de DPeliculasHDmega la pass es:dpeliculashdmega.org Aportes de CinemaniaHD la pass es:cinemaniahdd.com Aportes recientes:cinemaniahdd.net
Guardado en : Drama

Películas relacionadas

descargar You (2018-2023) [NF] WEB-DL 1080p Latino – CMHDD WEBDL 1080p gratis, You (2018-2023) [NF] WEB-DL 1080p Latino – CMHDD WEBDL mega 1 link, You (2018-2023) [NF] WEB-DL 1080p Latino – CMHDD WEBDL pelicula completa, descargar You (2018-2023) [NF] WEB-DL 1080p Latino – CMHDD WEBDL gratis en mega.

You (2018-2023) [NF] WEB-DL 1080p Latino – CMHDD pelicula full hd, You (2018-2023) [NF] WEB-DL 1080p Latino – CMHDD mega latino, You (2018-2023) [NF] WEB-DL 1080p Latino – CMHDD 4k latino, You (2018-2023) [NF] WEB-DL 1080p Latino – CMHDD pelicula completa, You (2018-2023) [NF] WEB-DL 1080p Latino – CMHDD descargar gratis, descargar You (2018-2023) [NF] WEB-DL 1080p Latino – CMHDD pelicula latino, You (2018-2023) [NF] WEB-DL 1080p Latino – CMHDD 1 link mega, You (2018-2023) [NF] WEB-DL 1080p Latino – CMHDD 1 link google drive, You (2018-2023) [NF] WEB-DL 1080p Latino – CMHDD hd 1080p latino.
Comentarios 0