Yo vi al diablo (2010) 1080p Latino

998 vistas
1 estrella2 estrellas3 estrellas4 estrellas5 estrellas (4 votos, promedio: 5,00 de 5)
Cargando…

Información de Yo vi al diablo (2010) 1080p Latino

Datos de la película

  • Calidad: 1080p
  • Audio: Español Latino AC3 2.0 DVD- Coreano AC3 5.1 BLURAY
  • Subtitulos: Español Latino SRT
  • Resolución: 1920x1040p
  • Formato: MKV
  • Codec: H.264
  • Encoder: Dracarys
  • Mediainfo: Clic para Mostrar Datos Ver
  • Format                                   : Matroska
    Format version                           : Version 4 / Version 2
    File size                                : 4.27 GiB
    Duration                                 : 2 h 22 min
    Overall bit rate                         : 4 295 kb/s
    Movie name                               : CinemaniaHDD.net
    Encoded date                             : UTC 2018-07-19 03:43:52 / UTC 2018-07-19T01:46:32Z
    Writing application                      : mkvmerge v15.0.0 ('Duel with the Devil') 64-bit
    Writing library                          : libebml v1.3.5 + libmatroska v1.4.5 / Lavf57.7.2

    Video
    ID                                       : 1
    Format                                   : AVC
    Format/Info                              : Advanced Video Codec
    Format profile                           : High@L4.1
    Format settings                          : CABAC / 4 Ref Frames
    Format settings, CABAC                   : Yes
    Format settings, RefFrames               : 4 frames
    Codec ID                                 : V_MPEG4/ISO/AVC
    Duration                                 : 2 h 22 min
    Bit rate                                 : 3 500 kb/s
    Width                                    : 1 920 pixels
    Height                                   : 1 040 pixels
    Display aspect ratio                     : 1.85:1
    Frame rate mode                          : Constant
    Frame rate                               : 23.976 (24000/1001) FPS
    Color space                              : YUV
    Chroma subsampling                       : 4:2:0
    Bit depth                                : 8 bits
    Scan type                                : Progressive
    Bits/(Pixel*Frame)                       : 0.073
    Stream size                              : 3.35 GiB (79%)
    Title                                    : Yo vi al diablo (2010) 1080p Latino
    Writing library                          : x264 core 148 r2708 86b7198
    Encoding settings                        : cabac=1 / ref=4 / deblock=1:0:0 / analyse=0x3:0x113 / me=umh / subme=8 / psy=1 / psy_rd=1.00:0.00 / mixed_ref=1 / me_range=16 / chroma_me=1 / trellis=1 / 8x8dct=1 / cqm=0 / deadzone=21,11 / fast_pskip=1 / chroma_qp_offset=-2 / threads=32 / lookahead_threads=5 / sliced_threads=0 / nr=0 / decimate=1 / interlaced=0 / bluray_compat=0 / constrained_intra=0 / bframes=3 / b_pyramid=2 / b_adapt=2 / b_bias=0 / direct=3 / weightb=1 / open_gop=0 / weightp=2 / keyint=240 / keyint_min=24 / scenecut=40 / intra_refresh=0 / rc_lookahead=50 / rc=abr / mbtree=1 / bitrate=3500 / ratetol=1.0 / qcomp=0.60 / qpmin=0 / qpmax=69 / qpstep=4 / vbv_maxrate=62500 / vbv_bufsize=78125 / nal_hrd=none / filler=0 / ip_ratio=1.40 / aq=1:1.00
    Language                                 : Korean
    Default                                  : Yes
    Forced                                   : No
    Color range                              : Limited
    Color primaries                          : BT.709
    Transfer characteristics                 : BT.709
    Matrix coefficients                      : BT.709
    Statistics Tags Issue                    : mkvmerge v15.0.0 ('Duel with the Devil') 64-bit 2018-07-19 03:43:52 / mkvmerge v15.0.0 ('Duel with the Devil') 64-bit 2018-07-19 03:43:52 / UTC 2018-07-19T01:46:32Z
    FromStats_BitRate                        : 3461030
    FromStats_Duration                       : 02:22:10.981000000
    FromStats_FrameCount                     : 204539
    FromStats_StreamSize                     : 3690747962

    Audio #1
    ID                                       : 2
    Format                                   : AC-3
    Format/Info                              : Audio Coding 3
    Format settings, Endianness              : Big
    Codec ID                                 : A_AC3
    Duration                                 : 2 h 22 min
    Bit rate mode                            : Constant
    Bit rate                                 : 192 kb/s
    Channel(s)                               : 2 channels
    Channel positions                        : Front: L R
    Sampling rate                            : 48.0 kHz
    Frame rate                               : 31.250 FPS (1536 SPF)
    Bit depth                                : 16 bits
    Compression mode                         : Lossy
    Delay relative to video                  : -5 ms
    Stream size                              : 195 MiB (4%)
    Language                                 : Spanish
    Service kind                             : Complete Main
    Default                                  : Yes
    Forced                                   : No
    Statistics Tags Issue                    : mkvmerge v15.0.0 ('Duel with the Devil') 64-bit 2018-07-19 03:43:52 / mkvmerge v15.0.0 ('Duel with the Devil') 64-bit 2018-07-19 03:43:52 / UTC 2018-07-19T01:46:32Z
    FromStats_BitRate                        : 192000
    FromStats_Duration                       : 02:22:11.296000000
    FromStats_FrameCount                     : 266603
    FromStats_StreamSize                     : 204751104

    Audio #2
    ID                                       : 3
    Format                                   : AC-3
    Format/Info                              : Audio Coding 3
    Format settings, Endianness              : Big
    Codec ID                                 : A_AC3
    Duration                                 : 2 h 22 min
    Bit rate mode                            : Constant
    Bit rate                                 : 640 kb/s
    Channel(s)                               : 6 channels
    Channel positions                        : Front: L C R, Side: L R, LFE
    Sampling rate                            : 48.0 kHz
    Frame rate                               : 31.250 FPS (1536 SPF)
    Bit depth                                : 16 bits
    Compression mode                         : Lossy
    Delay relative to video                  : -5 ms
    Stream size                              : 651 MiB (15%)
    Language                                 : Korean
    Service kind                             : Complete Main
    Default                                  : No
    Forced                                   : No
    Statistics Tags Issue                    : mkvmerge v15.0.0 ('Duel with the Devil') 64-bit 2018-07-19 03:43:52 / mkvmerge v15.0.0 ('Duel with the Devil') 64-bit 2018-07-19 03:43:52 / UTC 2018-07-19T01:46:32Z
    FromStats_BitRate                        : 640000
    FromStats_Duration                       : 02:22:11.264000000
    FromStats_FrameCount                     : 266602
    FromStats_StreamSize                     : 682501120

    Text
    ID                                       : 4
    Format                                   : UTF-8
    Codec ID                                 : S_TEXT/UTF8
    Codec ID/Info                            : UTF-8 Plain Text
    Language                                 : Spanish
    Default                                  : No
    Forced                                   : No
    Statistics Tags Issue                    : mkvmerge v15.0.0 ('Duel with the Devil') 64-bit 2018-07-19 03:43:52 / mkvmerge v15.0.0 ('Duel with the Devil') 64-bit 2018-07-19 03:43:52 / UTC 2018-07-19T01:46:32Z
    FromStats_BitRate                        : 18
    FromStats_Duration                       : 02:16:11.485000000
    FromStats_FrameCount                     : 692
    FromStats_StreamSize                     : 19080

    Menu
    00:00:00.000                             : :00:00:00.000
    00:09:44.167                             : :00:09:44.166
    00:14:13.394                             : :00:14:13.394
    00:19:52.650                             : :00:19:52.524
    00:23:27.406                             : :00:23:27.405
    00:36:21.763                             : :00:36:21.762
    00:45:24.931                             : :00:45:24.930
    00:56:03.110                             : :00:56:03.109
    01:02:09.559                             : :01:02:09.559
    01:13:04.547                             : :01:13:04.546
    01:17:05.913                             : :01:17:05.787
    01:27:45.385                             : :01:27:45.260
    01:40:43.329                             : :01:40:43.287
    01:49:49.291                             : :01:49:49.291
    02:06:36.089                             : :02:06:36.005
    02:19:35.117                             : :02:19:35.075

  • Peso: 4.27 GiB

Sinopsis

Kyung-chul es un psicópata peligroso que mata por placer y que ha cometido varios asesinatos con unos métodos diabólicos difíciles de imaginar. Sus víctimas son chicas jóvenes. La policía lleva tiempo intentando capturarlo. Un día, aparece asesinada la hija de un jefe de policía retirado. El novio de la chica, un agente secreto, jura vengarse.

Ficha técnica

  • Titulo original: 악마를 보았다
  • Fecha de lanzamiento: 12-08-2010 (South Korea)
  • Director: Kim Jee-woon
  • Género: Suspense, Terror
  • Puntuación: 5.0 4 votos
  • Duración:
    2 h 22 min

Video trailer de la película

Enlaces de descarga

Rip de Bluray

Descargar Yo vi al diablo (2010) 1080p Latino




Aportes de DPeliculasHDmega la pass es:dpeliculashdmega.org Aportes de CinemaniaHD la pass es:cinemaniahdd.com
Guardado en : Suspense , Terror

Películas relacionadas

  • Cam (2018) NF 1080p Latino

    2018
    Cam (2018) NF 1080p Latino

    0.0 1h 34m 2018

    Alice es una camgirl con un código inamovible, que le permite mantener una cierta distancia con los...

    Director: Rachel Penner

    Género: Suspense

    Actores: Samantha Robinson

  • El Justiciero 2 (2018) Full 1080p Latino

    2018
    El Justiciero 2 (2018) Full 1080p Latino

    5.0 2h 0m 2018

    Descargar El Justiciero 2 (2018) Full 1080p Latino, Mega, Google Drive. Robert McCall (Denzel Washington)...

    Director: Donald Sparks

    Género: Acción

    Actores: Wesley Pereira

  • El Justiciero 2 (2018) 1080p Latino

    2018
    El Justiciero 2 (2018) 1080p Latino

    2.5 2h 0m 2018

    Descargar El Justiciero 2 (2018) 1080p Latino, Mega, Google Drive. Robert McCall (Denzel Washington)...

    Director: Donald Sparks

    Género: Acción

    Actores: Wesley Pereira

Comentarios 0