×

¿Problemas para descargar con Mozilla, EDGE? Deshabilita la opción "Abrir vinculos en una pestaña nueva" tal como lo muestra ésta imagen.

Yo, Robot (2004) OPEN MATTE Full HD 1080p Latino

1.001 vistas

Información de Yo, Robot (2004) OPEN MATTE Full HD 1080p Latino

Datos de la película

  • Calidad: Full 1080p
  • Audio: Español Latino DTS 5.1 BLURAY - Ingles DTS 5.1 BLURAY
  • Subtitulos: Español PGS - Ingles PGS
  • Resolución: 1920x1080p
  • Formato: MKV
  • Codec: H.264
  • Encoder: Dracarys | CinefiloCool
  • Mediainfo: Clic para Mostrar Datos Ver
  • Yo, Robot (2004) OPEN MATTE Full HD 1080p Latino-CMHDD.mkv
    Format                      : Matroska
    Format version              : Version 4
    File size                   : 9.53 GiB
    Duration                    : 1 h 54 min
    Overall bit rate            : 11.9 Mb/s
    Movie name                  : I, Robot (2004) CinemaniaHDD.Net
    Encoded date                : UTC 2023-10-03 04:02:42
    Writing application         : mkvmerge v56.1.0 ('My Friend') 64-bit
    Writing library             : libebml v1.4.2 + libmatroska v1.6.4
    Attachments                 : CINEMANIAHD.png

    Video
    ID                          : 1
    Format                      : AVC
    Format/Info                 : Advanced Video Codec
    Format profile              : High@L4.1
    Format settings             : CABAC / 4 Ref Frames
    Format settings, CABAC      : Yes
    Format settings, Reference  : 4 frames
    Codec ID                    : V_MPEG4/ISO/AVC
    Duration                    : 1 h 54 min
    Bit rate                    : 9 580 kb/s
    Width                       : 1 920 pixels
    Height                      : 1 080 pixels
    Display aspect ratio        : 16:9
    Frame rate mode             : Constant
    Frame rate                  : 23.976 (24000/1001) FPS
    Color space                 : YUV
    Chroma subsampling          : 4:2:0
    Bit depth                   : 8 bits
    Scan type                   : Progressive
    Bits/(Pixel*Frame)          : 0.193
    Stream size                 : 7.68 GiB (81%)
    Title                       : Full HD1080p [CinemaniaHDD]
    Writing library             : x264 core 163 r3059 b684ebe0
    Encoding settings           : cabac=1 / ref=4 / deblock=1:0:0 / analyse=0x3:0x133 / me=tesa / subme=11 / psy=1 / psy_rd=1.00:0.00 / mixed_ref=1 / me_range=24 / chroma_me=1 / trellis=2 / 8x8dct=1 / cqm=0 / deadzone=21,11 / fast_pskip=0 / chroma_qp_offset=-2 / threads=24 / lookahead_threads=6 / sliced_threads=0 / nr=0 / decimate=1 / interlaced=0 / bluray_compat=0 / constrained_intra=0 / bframes=16 / b_pyramid=2 / b_adapt=2 / b_bias=0 / direct=3 / weightb=1 / open_gop=0 / weightp=2 / keyint=240 / keyint_min=24 / scenecut=40 / intra_refresh=0 / rc_lookahead=60 / rc=crf / mbtree=1 / crf=20.0 / qcomp=0.60 / qpmin=0 / qpmax=69 / qpstep=4 / vbv_maxrate=62500 / vbv_bufsize=78125 / crf_max=0.0 / nal_hrd=none / filler=0 / ip_ratio=1.40 / aq=1:1.00
    Default                     : Yes
    Forced                      : Yes
    Color range                 : Limited
    Color primaries             : BT.709
    Transfer characteristics    : BT.709
    Matrix coefficients         : BT.709

    Audio #1
    ID                          : 2
    Format                      : DTS
    Format/Info                 : Digital Theater Systems
    Codec ID                    : A_DTS
    Duration                    : 1 h 54 min
    Bit rate mode               : Constant
    Bit rate                    : 768 kb/s
    Channel(s)                  : 6 channels
    Channel layout              : C L R Ls Rs LFE
    Sampling rate               : 48.0 kHz
    Frame rate                  : 93.750 FPS (512 SPF)
    Bit depth                   : 24 bits
    Compression mode            : Lossy
    Stream size                 : 630 MiB (6%)
    Title                       : Español Latino [CinemaniaHDD]
    Language                    : Spanish
    Default                     : Yes
    Forced                      : Yes

    Audio #2
    ID                          : 3
    Format                      : DTS
    Format/Info                 : Digital Theater Systems
    Codec ID                    : A_DTS
    Duration                    : 1 h 54 min
    Bit rate mode               : Constant
    Bit rate                    : 1 509 kb/s
    Channel(s)                  : 6 channels
    Channel layout              : C L R Ls Rs LFE
    Sampling rate               : 48.0 kHz
    Frame rate                  : 93.750 FPS (512 SPF)
    Bit depth                   : 24 bits
    Compression mode            : Lossy
    Stream size                 : 1.21 GiB (13%)
    Title                       : Ingles [CinemaniaHDD]
    Language                    : English
    Default                     : No
    Forced                      : No

    Text #1
    ID                          : 4
    Format                      : PGS
    Muxing mode                 : zlib
    Codec ID                    : S_HDMV/PGS
    Codec ID/Info               : Picture based subtitle format used on BDs/HD-DVDs
    Duration                    : 1 h 53 min
    Bit rate                    : 568 b/s
    Count of elements           : 40
    Stream size                 : 475 KiB (0%)
    Title                       : Forzados-PGS [CinemaniaHDD]
    Language                    : Spanish
    Default                     : No
    Forced                      : No

    Text #2
    ID                          : 5
    Format                      : PGS
    Muxing mode                 : zlib
    Codec ID                    : S_HDMV/PGS
    Codec ID/Info               : Picture based subtitle format used on BDs/HD-DVDs
    Duration                    : 1 h 53 min
    Bit rate                    : 29.4 kb/s
    Count of elements           : 2276
    Stream size                 : 23.9 MiB (0%)
    Title                       : Español-PGS [CinemaniaHDD]
    Language                    : Spanish
    Default                     : No
    Forced                      : No

    Text #3
    ID                          : 6
    Format                      : PGS
    Muxing mode                 : zlib
    Codec ID                    : S_HDMV/PGS
    Codec ID/Info               : Picture based subtitle format used on BDs/HD-DVDs
    Duration                    : 1 h 51 min
    Bit rate                    : 29.4 kb/s
    Count of elements           : 2236
    Stream size                 : 23.5 MiB (0%)
    Title                       : Ingles-PGS [CinemaniaHDD]
    Language                    : English
    Default                     : No
    Forced                      : No

    Text #4
    ID                          : 7
    Format                      : UTF-8
    Codec ID                    : S_TEXT/UTF8
    Codec ID/Info               : UTF-8 Plain Text
    Duration                    : 1 h 33 min
    Bit rate                    : 1 b/s
    Count of elements           : 20
    Stream size                 : 720 Bytes (0%)
    Title                       : Forzados-SRT [CinemaniaHDD]
    Language                    : Spanish
    Default                     : Yes
    Forced                      : Yes

    Text #5
    ID                          : 8
    Format                      : UTF-8
    Codec ID                    : S_TEXT/UTF8
    Codec ID/Info               : UTF-8 Plain Text
    Duration                    : 1 h 43 min
    Bit rate                    : 54 b/s
    Count of elements           : 1124
    Stream size                 : 41.0 KiB (0%)
    Title                       : Español-SRT [CinemaniaHDD]
    Language                    : Spanish
    Default                     : No
    Forced                      : No

    Menu
    00:00:00.000                : Opening Titles
    00:01:46.940                : Del Spooner
    00:03:30.252                : Spoonerville
    00:06:18.545                : The Chase
    00:07:57.519                : Police Station
    00:10:19.702                : Dr. Laning's Hologram
    00:12:11.230                : Lawrence Robertson
    00:15:35.309                : Susan Calvin's Tour of USR
    00:17:47.984                : Sonny
    00:22:51.870                : Factory Floor
    00:26:14.031                : Caught
    00:26:59.243                : The Interrogation
    00:33:23.168                : The Cafe
    00:36:03.578                : Lanning's House
    00:41:23.523                : The End of a Long Day
    00:46:07.890                : NS-5 Rollout
    00:49:06.026                : Following Bread Crumbs
    00:52:14.506                : "You Are Experiencing a Car Accident"
    00:55:22.277                : One on One
    00:58:31.717                : The Cavalry Arrives
    01:00:06.770                : Two Sons
    01:01:08.665                : Spooner's Past
    01:07:56.114                : The Bike
    01:08:18.094                : Sonny's Dream
    01:10:24.303                : Robertson's Office
    01:13:17.226                : Shell Game
    01:16:53.818                : Ghosts in the Machine
    01:18:39.465                : Father and Son
    01:20:14.226                : Ambush
    01:21:18.290                : NS-5s Come On-Line
    01:21:57.454                : Robot Wars
    01:27:29.536                : The Back Door
    01:28:57.666                : The Standoff
    01:32:59.657                : Viki Level
    01:34:45.138                : Unauthorized Entry
    01:38:09.467                : "Save Her!"
    01:41:10.898                : Reconciliation
    01:44:15.416                : Sonny's Future
    01:45:02.755                : End Titles

  • Peso: 9.53 GiB

Sinopsis

Descargar Yo, Robot (2004) OPEN MATTE Full HD 1080p Latino. En el año 2035, los robots son unos dispositivos que usamos todos los días y en quienes confiamos, excepto un detective paranoico (Smith), investigando lo que solo él cree que es un crimen perpetrado por un robot. El caso lo lleva a descubrir algo aún peor que amenaza la raza humana. Will Smith protagoniza este thriller de acción inspirado en la clásica colección de relatos cortos de Isaac Asimov, y llevado al cine por el dinámico y visionario director Alex Proyas (Dark City, El cuervo). En esta película se emplean las más modernas y espectaculares técnicas de efectos visuales para dar vida al mundo de los robots.

Ficha técnica

Video trailer de la película

Enlaces de descarga

Rip de Bluray

Descargar Yo, Robot (2004) OPEN MATTE Full HD 1080p Latino




Aportes de DPeliculasHDmega la pass es:dpeliculashdmega.org Aportes de CinemaniaHD la pass es:cinemaniahdd.com Aportes recientes:cinemaniahdd.net

Películas relacionadas

  • Dune: Parte dos (2024) WEB-DL 4K UHD HDR Latino

    Dune: Parte dos (2024) WEB-DL 4K UHD HDR Latino

    2024
    Dune: Parte dos (2024) WEB-DL 4K UHD HDR Latino

    2h 47m 2024

    Descargar Dune: Parte dos (2024) WEB-DL 4K UHD HDR Latino. Sigue el viaje mítico de Paul Atreides mientras...

    Director: Vera Janisch

    Género: 4K HDR

    Actores: Zouhair Elakkari

  • Dune: Parte dos (2024) AMZN WEB-DL 1080p Latino

    Dune: Parte dos (2024) AMZN WEB-DL 1080p Latino

    2024
    Dune: Parte dos (2024) AMZN WEB-DL 1080p Latino

    2h 47m 2024

    Descargar Dune: Parte dos (2024) AMZN WEB-DL 1080p Latino. Sigue el viaje mítico de Paul Atreides mientras...

    Director: Vera Janisch

    Género: Aventura

    Actores: Zouhair Elakkari

  • La Duquesa (2008) Full HD 1080p Latino-CMHDD

    La Duquesa (2008) Full HD 1080p Latino-CMHDD

    2008
    La Duquesa (2008) Full HD 1080p Latino-CMHDD

    1h 51m 2008

    Descargar La Duquesa (2008) Full HD 1080p Latino-CMHDD. Hermosa, glamurosa y adorada por el pueblo, Georgiana...

    Director: Saul Dibb

    Género: Drama

    Actores: Thomas Arnold

descargar Yo, Robot (2004) OPEN MATTE Full HD 1080p Latino Full 1080p 1080p gratis, Yo, Robot (2004) OPEN MATTE Full HD 1080p Latino Full 1080p mega 1 link, Yo, Robot (2004) OPEN MATTE Full HD 1080p Latino Full 1080p pelicula completa, descargar Yo, Robot (2004) OPEN MATTE Full HD 1080p Latino Full 1080p gratis en mega.

Yo, Robot (2004) OPEN MATTE Full HD 1080p Latino pelicula full hd, Yo, Robot (2004) OPEN MATTE Full HD 1080p Latino mega latino, Yo, Robot (2004) OPEN MATTE Full HD 1080p Latino 4k latino, Yo, Robot (2004) OPEN MATTE Full HD 1080p Latino pelicula completa, Yo, Robot (2004) OPEN MATTE Full HD 1080p Latino descargar gratis, descargar Yo, Robot (2004) OPEN MATTE Full HD 1080p Latino pelicula latino, Yo, Robot (2004) OPEN MATTE Full HD 1080p Latino 1 link mega, Yo, Robot (2004) OPEN MATTE Full HD 1080p Latino 1 link google drive, Yo, Robot (2004) OPEN MATTE Full HD 1080p Latino hd 1080p latino.
Comentarios 1