×

¿Problemas para descargar con Mozilla, EDGE? Deshabilita la opción "Abrir vinculos en una pestaña nueva" tal como lo muestra ésta imagen.

Yesterday (2019) WEB-DL 1080p Latino

1.446 vistas

Información de Yesterday (2019) WEB-DL 1080p Latino

Datos de la película

  • Calidad: WEBDL
  • Audio: Español Latino AC3 2.0 iTunes - Ingles AC3 5.1 iTunes
  • Subtitulos: Español Latino SRT- FORZADOS SRT
  • Resolución: 1920x796
  • Formato: MKV
  • Codec: H.264
  • Encoder: cinemaniahdd
  • Mediainfo: Clic para Mostrar Datos Ver
  • Yesterday (2019) WEB-DL 1080p Latino.mkv
    Format                      : Matroska
    Format version              : Version 4
    File size                   : 4.14 GiB
    Duration                    : 1 h 56 min
    Overall bit rate            : 5 098 kb/s
    Movie name                  : Yesterday (2019) - CinemanaiHDD.Net
    Encoded date                : UTC 2019-09-10 15:28:40
    Writing application         : mkvmerge v35.0.0 ('All The Love In The World') 64-bit
    Writing library             : libebml v1.3.9 + libmatroska v1.5.2

    Video
    ID                          : 1
    Format                      : AVC
    Format/Info                 : Advanced Video Codec
    Format profile              : High@L4
    Format settings             : CABAC / 5 Ref Frames
    Format settings, CABAC      : Yes
    Format settings, ReFrames   : 5 frames
    Codec ID                    : V_MPEG4/ISO/AVC
    Duration                    : 1 h 56 min
    Bit rate                    : 4 539 kb/s
    Width                       : 1 920 pixels
    Height                      : 796 pixels
    Display aspect ratio        : 2.40:1
    Frame rate mode             : Constant
    Frame rate                  : 23.976 FPS
    Color space                 : YUV
    Chroma subsampling          : 4:2:0
    Bit depth                   : 8 bits
    Scan type                   : Progressive
    Bits/(Pixel*Frame)          : 0.124
    Stream size                 : 3.69 GiB (89%)
    Title                       : CinemaniaHDD
    Language                    : English
    Default                     : Yes
    Forced                      : No
    Color range                 : Limited
    Color primaries             : BT.709
    Transfer characteristics    : BT.709
    Matrix coefficients         : BT.709

    Audio #1
    ID                          : 2
    Format                      : AC-3
    Format/Info                 : Audio Coding 3
    Commercial name             : Dolby Digital
    Codec ID                    : A_AC3
    Duration                    : 1 h 18 min
    Bit rate mode               : Constant
    Bit rate                    : 256 kb/s
    Channel(s)                  : 2 channels
    Channel layout              : L R
    Sampling rate               : 48.0 kHz
    Frame rate                  : 31.250 FPS (1536 SPF)
    Bit depth                   : 16 bits
    Compression mode            : Lossy
    Delay relative to video     : -42 ms
    Stream size                 : 144 MiB (3%)
    Title                       : Español latino [CinemaniaHDD]
    Language                    : Spanish
    Service kind                : Complete Main
    Default                     : Yes
    Forced                      : No

    Audio #2
    ID                          : 3
    Format                      : AC-3
    Format/Info                 : Audio Coding 3
    Commercial name             : Dolby Digital
    Codec ID                    : A_AC3
    Duration                    : 1 h 56 min
    Bit rate mode               : Constant
    Bit rate                    : 384 kb/s
    Channel(s)                  : 6 channels
    Channel layout              : L R C LFE Ls Rs
    Sampling rate               : 48.0 kHz
    Frame rate                  : 31.250 FPS (1536 SPF)
    Bit depth                   : 16 bits
    Compression mode            : Lossy
    Delay relative to video     : -42 ms
    Stream size                 : 319 MiB (8%)
    Title                       : Inglés [CinemaniaHDD]
    Language                    : English
    Service kind                : Complete Main
    Default                     : No
    Forced                      : No

    Text #1
    ID                          : 4
    Format                      : UTF-8
    Codec ID                    : S_TEXT/UTF8
    Codec ID/Info               : UTF-8 Plain Text
    Duration                    : 1 h 44 min
    Bit rate                    : 0 b/s
    Count of elements           : 6
    Stream size                 : 156 Bytes (0%)
    Title                       : Forzados [CinemaniaHDD]
    Language                    : Spanish
    Default                     : Yes
    Forced                      : Yes

    Text #2
    ID                          : 5
    Format                      : UTF-8
    Codec ID                    : S_TEXT/UTF8
    Codec ID/Info               : UTF-8 Plain Text
    Duration                    : 1 h 54 min
    Bit rate                    : 57 b/s
    Count of elements           : 1532
    Stream size                 : 47.9 KiB (0%)
    Title                       : Español latino [CinemaniaHDD]
    Language                    : Spanish
    Default                     : No
    Forced                      : No

    Menu
    00:00:00.000                : en:1
    00:06:17.669                : en:2
    00:11:20.680                : en:3
    00:16:14.098                : en:4
    00:21:29.287                : en:5
    00:27:05.538                : en:6
    00:33:32.883                : en:7
    00:38:56.081                : en:8
    00:45:54.249                : en:9
    00:48:18.058                : en:10
    00:56:25.335                : en:11
    01:03:48.485                : en:12
    01:09:17.479                : en:13
    01:14:18.070                : en:14
    01:19:05.607                : en:15
    01:24:11.578                : en:16
    01:31:52.914                : en:17
    01:36:01.578                : en:18
    01:40:04.236                : en:19
    01:46:52.978                : en:20
    01:48:37.539                : en:21

     

  • Peso: 4.14 GiB

Sinopsis

El cineasta británico Danny Boyle (T2: Transpotting, Steve Jobs) dirige este filme musical cuyo guión escribe Richard Curtis (Una cuestión de tiempo). El reparto principal de la película está formado por Lily James (La sociedad literaria y el pastel de piel de patata), Kate McKinnon (Cazafantasmas), Ana de Armas (Blade Runner 2049), Himesh Patel (Gente de barrio), además del cantante y compositor británico Ed Sheeran.

Ficha técnica

Video trailer de la película

Enlaces de descarga

Rip de Bluray

Descargar Yesterday (2019) WEB-DL 1080p Latino




Aportes de DPeliculasHDmega la pass es:dpeliculashdmega.org Aportes de CinemaniaHD la pass es:cinemaniahdd.com
Guardado en : Comedia , Fantasía , Música , Romance

Películas relacionadas

descargar Yesterday (2019) WEB-DL 1080p Latino WEBDL 1080p gratis, Yesterday (2019) WEB-DL 1080p Latino WEBDL mega 1 link, Yesterday (2019) WEB-DL 1080p Latino WEBDL pelicula completa, descargar Yesterday (2019) WEB-DL 1080p Latino WEBDL gratis en mega.

Yesterday (2019) WEB-DL 1080p Latino pelicula full hd, Yesterday (2019) WEB-DL 1080p Latino mega latino, Yesterday (2019) WEB-DL 1080p Latino 4k latino, Yesterday (2019) WEB-DL 1080p Latino pelicula completa, Yesterday (2019) WEB-DL 1080p Latino descargar gratis, descargar Yesterday (2019) WEB-DL 1080p Latino pelicula latino, Yesterday (2019) WEB-DL 1080p Latino 1 link mega, Yesterday (2019) WEB-DL 1080p Latino 1 link google drive, Yesterday (2019) WEB-DL 1080p Latino hd 1080p latino.
Comentarios 2
  • mache - 10 septiembre, 2019

    Hola, el audio latino esta malo y hace que se pegue el video, minute 1:18:30

    • dpelis - 10 septiembre, 2019

      gracias por avisar, se habia muxeado mal. ya quedo reparado.