×

¿Problemas para descargar con Mozilla, EDGE? Deshabilita la opción "Abrir vinculos en una pestaña nueva" tal como lo muestra ésta imagen.

Yesterday (2019) REMUX 4K HDR Latino – CMHDD

271 vistas

Información de Yesterday (2019) REMUX 4K HDR Latino – CMHDD

Datos de la película

  • Calidad: 4K HDR
  • Audio: Se especifica abajo de la Sinopsis
  • Subtitulos: Español Latino SRT- FORZADOS SRT
  • Resolución: 3840x2160p
  • Formato: MKV
  • Codec: H.264
  • Encoder: Dracarys
  • Mediainfo: Clic para Mostrar Datos Ver
  • Format                      : Matroska
    Format version              : Version 4
    File size                   : 53.2 GiB
    Duration                    : 1 h 56 min
    Overall bit rate mode       : Variable
    Overall bit rate            : 65.6 Mb/s
    Movie name                  : Yesterday (2019) REMUX 4K HDR Latino - CMHDD
    Encoded date                : UTC 2024-07-06 01:38:00
    Writing application         : mkvmerge v47.0.0 ('Black Flag') 64-bit
    Writing library             : libebml v1.3.10 + libmatroska v1.5.2

    Video
    ID                          : 1
    Format                      : HEVC
    Format/Info                 : High Efficiency Video Coding
    Format profile              : Main 10@L5.1@High
    HDR format                  : SMPTE ST 2094 App 4, Version 1, HDR10+ Profile B compatible
    Codec ID                    : V_MPEGH/ISO/HEVC
    Duration                    : 1 h 56 min
    Bit rate                    : 60.4 Mb/s
    Width                       : 3 840 pixels
    Height                      : 2 160 pixels
    Display aspect ratio        : 16:9
    Frame rate mode             : Constant
    Frame rate                  : 23.976 (24000/1001) FPS
    Color space                 : YUV
    Chroma subsampling          : 4:2:0 (Type 2)
    Bit depth                   : 10 bits
    Bits/(Pixel*Frame)          : 0.304
    Stream size                 : 49.0 GiB (92%)
    Language                    : English
    Default                     : Yes
    Forced                      : No
    Color range                 : Limited
    Color primaries             : BT.2020
    Transfer characteristics    : PQ
    Matrix coefficients         : BT.2020 non-constant
    Mastering display color pri : Display P3
    Mastering display luminance : min: 0.0050 cd/m2, max: 1000 cd/m2
    Maximum Content Light Level : 999 cd/m2
    Maximum Frame-Average Light : 125 cd/m2

    Audio #1
    ID                          : 2
    Format                      : AC-3
    Format/Info                 : Audio Coding 3
    Commercial name             : Dolby Digital
    Codec ID                    : A_AC3
    Duration                    : 1 h 56 min
    Bit rate mode               : Constant
    Bit rate                    : 640 kb/s
    Channel(s)                  : 6 channels
    Channel layout              : L R C LFE Ls Rs
    Sampling rate               : 48.0 kHz
    Frame rate                  : 31.250 FPS (1536 SPF)
    Compression mode            : Lossy
    Stream size                 : 532 MiB (1%)
    Language                    : Spanish
    Service kind                : Complete Main
    Default                     : Yes
    Forced                      : Yes

    Audio #2
    ID                          : 3
    Format                      : E-AC-3
    Format/Info                 : Enhanced AC-3
    Commercial name             : Dolby Digital Plus
    Format profile              : Blu-ray Disc
    Codec ID                    : A_EAC3
    Duration                    : 1 h 56 min
    Bit rate mode               : Constant
    Bit rate                    : 768 kb/s
    Channel(s)                  : 8 channels
    Channel layout              : L R C LFE Ls Rs Lb Rb
    Sampling rate               : 48.0 kHz
    Frame rate                  : 31.250 FPS (1536 SPF)
    Compression mode            : Lossy
    Stream size                 : 639 MiB (1%)
    Language                    : Spanish
    Service kind                : Complete Main
    Default                     : No
    Forced                      : No

    Audio #3
    ID                          : 4
    Format                      : AC-3
    Format/Info                 : Audio Coding 3
    Commercial name             : Dolby Digital
    Codec ID                    : A_AC3
    Duration                    : 1 h 56 min
    Bit rate mode               : Constant
    Bit rate                    : 448 kb/s
    Channel(s)                  : 6 channels
    Channel layout              : L R C LFE Ls Rs
    Sampling rate               : 48.0 kHz
    Frame rate                  : 31.250 FPS (1536 SPF)
    Compression mode            : Lossy
    Stream size                 : 372 MiB (1%)
    Language                    : English
    Service kind                : Complete Main
    Default                     : No
    Forced                      : No

    Audio #4
    ID                          : 5
    Format                      : MLP FBA 16-ch
    Format/Info                 : Meridian Lossless Packing FBA with 16-channel presentation
    Commercial name             : Dolby TrueHD with Dolby Atmos
    Codec ID                    : A_TRUEHD
    Duration                    : 1 h 56 min
    Bit rate mode               : Variable
    Bit rate                    : 3 272 kb/s
    Maximum bit rate            : 5 664 kb/s
    Channel(s)                  : 8 channels
    Channel layout              : L R C LFE Ls Rs Lb Rb
    Sampling rate               : 48.0 kHz
    Frame rate                  : 1 200.000 FPS (40 SPF)
    Compression mode            : Lossless
    Stream size                 : 2.66 GiB (5%)
    Language                    : English
    Default                     : No
    Forced                      : No
    Number of dynamic objects   : 11
    Bed channel count           : 1 channel
    Bed channel configuration   : LFE

    Text #1
    ID                          : 6
    Format                      : UTF-8
    Codec ID                    : S_TEXT/UTF8
    Codec ID/Info               : UTF-8 Plain Text
    Duration                    : 1 h 46 min
    Bit rate                    : 0 b/s
    Count of elements           : 6
    Stream size                 : 157 Bytes (0%)
    Title                       : Forzados
    Language                    : Spanish
    Default                     : Yes
    Forced                      : Yes

    Text #2
    ID                          : 7
    Format                      : UTF-8
    Codec ID                    : S_TEXT/UTF8
    Codec ID/Info               : UTF-8 Plain Text
    Duration                    : 1 h 55 min
    Bit rate                    : 72 b/s
    Count of elements           : 1906
    Stream size                 : 61.4 KiB (0%)
    Language                    : Spanish
    Default                     : No
    Forced                      : No

    Text #3
    ID                          : 8
    Format                      : PGS
    Muxing mode                 : zlib
    Codec ID                    : S_HDMV/PGS
    Codec ID/Info               : Picture based subtitle format used on BDs/HD-DVDs
    Duration                    : 1 h 54 min
    Bit rate                    : 40.7 kb/s
    Count of elements           : 3065
    Stream size                 : 33.4 MiB (0%)
    Language                    : Spanish
    Default                     : No
    Forced                      : No

    Menu
    00:00:00.000                : en:Chapter 01
    00:06:16.668                : en:Chapter 02
    00:11:19.679                : en:Chapter 03
    00:16:13.097                : en:Chapter 04
    00:21:28.287                : en:Chapter 05
    00:27:04.540                : en:Chapter 06
    00:33:31.885                : en:Chapter 07
    00:38:55.083                : en:Chapter 08
    00:45:53.250                : en:Chapter 09
    00:48:17.061                : en:Chapter 10
    00:56:24.339                : en:Chapter 11
    01:03:47.490                : en:Chapter 12
    01:09:16.486                : en:Chapter 13
    01:14:17.078                : en:Chapter 14
    01:19:04.615                : en:Chapter 15
    01:24:10.587                : en:Chapter 16
    01:31:51.923                : en:Chapter 17
    01:36:00.588                : en:Chapter 18
    01:40:03.247                : en:Chapter 19
    01:46:51.947                : en:Chapter 20

     

  • Peso: 53.2 GiB

Sinopsis

Ayer todo el mundo conocía a Los Beatles. Hoy Jack es el único que recuerda sus canciones. Este músico que malvive en una pequeña localidad costera de Inglaterra, se ha resignado a renunciar a sus sueños. Pero tras un misterioso apagón en todo el mundo, se despierta en una línea de tiempo alternativa donde nunca existieron Los Beatles. Entonces será su oportunidad de hacerse inmensamente famoso al ritmo de las míticas canciones del cuarteto de Liverpool, eso sí, se arriesgará a perder a Ellie, su musa y el amor de su vida.

 

Latino: E-AC3 7.1  –  Inglés: TrueHD 7.1

Ficha técnica

Video trailer de la película

Enlaces de descarga

Rip de Bluray

Descargar Yesterday (2019) REMUX 4K HDR Latino – CMHDD




Aportes de DPeliculasHDmega la pass es:dpeliculashdmega.org Aportes de CinemaniaHD la pass es:cinemaniahdd.com Aportes recientes:cinemaniahdd.net
Guardado en : Comedia , Fantasía , Música , Romance

Películas relacionadas

  • Amor, Mentiras y Sangre (2024) REMUX 1080p Latino

    Amor, Mentiras y Sangre (2024) REMUX 1080p Latino

    2024
    Amor, Mentiras y Sangre (2024) REMUX 1080p Latino

    1h 44m 2024

    Descargar Amor, Mentiras y Sangre (2024) REMUX 1080p Latino. Jackie está decidida a triunfar como culturista...

    Director: William Merritt Thomas

    Género: Crimen

    Actores: Tait Fletcher

  • Amor, Mentiras y Sangre (2024) HD 1080p Latino

    Amor, Mentiras y Sangre (2024) HD 1080p Latino

    2024
    Amor, Mentiras y Sangre (2024) HD 1080p Latino

    1h 44m 2024

    Descargar Amor, Mentiras y Sangre (2024) HD 1080p Latino. Jackie está decidida a triunfar como culturista...

    Director: William Merritt Thomas

    Género: Crimen

    Actores: Tait Fletcher

  • Love Lies Bleeding (2024) AMZN WEB-DL 1080p Latino

    Love Lies Bleeding (2024) AMZN WEB-DL 1080p Latino

    2024
    Love Lies Bleeding (2024) AMZN WEB-DL 1080p Latino

    1h 44m 2024

    Jackie está decidida a triunfar como culturista y se dirige a Las Vegas para participar en una competición....

    Director: William Merritt Thomas

    Género: Crimen

    Actores: Tait Fletcher

descargar Yesterday (2019) REMUX 4K HDR Latino – CMHDD 4K HDR 1080p gratis, Yesterday (2019) REMUX 4K HDR Latino – CMHDD 4K HDR mega 1 link, Yesterday (2019) REMUX 4K HDR Latino – CMHDD 4K HDR pelicula completa, descargar Yesterday (2019) REMUX 4K HDR Latino – CMHDD 4K HDR gratis en mega.

Yesterday (2019) REMUX 4K HDR Latino – CMHDD pelicula full hd, Yesterday (2019) REMUX 4K HDR Latino – CMHDD mega latino, Yesterday (2019) REMUX 4K HDR Latino – CMHDD 4k latino, Yesterday (2019) REMUX 4K HDR Latino – CMHDD pelicula completa, Yesterday (2019) REMUX 4K HDR Latino – CMHDD descargar gratis, descargar Yesterday (2019) REMUX 4K HDR Latino – CMHDD pelicula latino, Yesterday (2019) REMUX 4K HDR Latino – CMHDD 1 link mega, Yesterday (2019) REMUX 4K HDR Latino – CMHDD 1 link google drive, Yesterday (2019) REMUX 4K HDR Latino – CMHDD hd 1080p latino.
Comentarios 0