×

¿Problemas para descargar con Mozilla, EDGE? Deshabilita la opción "Abrir vinculos en una pestaña nueva" tal como lo muestra ésta imagen.

Yesterday (2019) REMUX 4K HDR Latino – CMHDD

186 vistas

Información de Yesterday (2019) REMUX 4K HDR Latino – CMHDD

Datos de la película

  • Calidad: 4K HDR
  • Audio: Se especifica abajo de la Sinopsis
  • Subtitulos: Español Latino PGS
  • Resolución: 3840x2160p
  • Formato: MKV
  • Codec: H.264
  • Encoder: Dracarys
  • Mediainfo: Clic para Mostrar Datos Ver
  • Format                      : Matroska
    Format version              : Version 4
    File size                   : 52.7 GiB
    Duration                    : 1 h 56 min
    Overall bit rate mode       : Variable
    Overall bit rate            : 64.9 Mb/s
    Movie name                  : Yesterday (2019) REMUX 4K HDR Latino - CMHDD
    Encoded date                : UTC 2023-03-09 21:22:00
    Writing application         : mkvmerge v47.0.0 ('Black Flag') 64-bit
    Writing library             : libebml v1.3.10 + libmatroska v1.5.2
    Cover                       : Yes
    Attachments                 : cover.jpg

    Video
    ID                          : 1
    ID in the original source m : 4113 (0x1011)
    Format                      : HEVC
    Format/Info                 : High Efficiency Video Coding
    Format profile              : Main 10@L5.1@High
    HDR format                  : SMPTE ST 2094 App 4, Version 1, HDR10+ Profile B compatible
    Codec ID                    : V_MPEGH/ISO/HEVC
    Duration                    : 1 h 56 min
    Bit rate                    : 60.4 Mb/s
    Width                       : 3 840 pixels
    Height                      : 2 160 pixels
    Display aspect ratio        : 16:9
    Frame rate mode             : Constant
    Frame rate                  : 23.976 (24000/1001) FPS
    Color space                 : YUV
    Chroma subsampling          : 4:2:0 (Type 2)
    Bit depth                   : 10 bits
    Bits/(Pixel*Frame)          : 0.304
    Stream size                 : 49.0 GiB (93%)
    Default                     : Yes
    Forced                      : No
    Color range                 : Limited
    Color primaries             : BT.2020
    Transfer characteristics    : PQ
    Matrix coefficients         : BT.2020 non-constant
    Mastering display color pri : Display P3
    Mastering display luminance : min: 0.0050 cd/m2, max: 1000 cd/m2
    Maximum Content Light Level : 999 cd/m2
    Maximum Frame-Average Light : 125 cd/m2
    Original source medium      : Blu-ray

    Audio #1
    ID                          : 2
    ID in the original source m : 4352 (0x1100)
    Format                      : MLP FBA 16-ch
    Format/Info                 : Meridian Lossless Packing FBA with 16-channel presentation
    Commercial name             : Dolby TrueHD with Dolby Atmos
    Codec ID                    : A_TRUEHD
    Duration                    : 1 h 56 min
    Bit rate mode               : Variable
    Bit rate                    : 3 272 kb/s
    Maximum bit rate            : 5 664 kb/s
    Channel(s)                  : 8 channels
    Channel layout              : L R C LFE Ls Rs Lb Rb
    Sampling rate               : 48.0 kHz
    Frame rate                  : 1 200.000 FPS (40 SPF)
    Compression mode            : Lossless
    Stream size                 : 2.66 GiB (5%)
    Language                    : English
    Default                     : No
    Forced                      : No
    Original source medium      : Blu-ray
    Number of dynamic objects   : 11
    Bed channel count           : 1 channel
    Bed channel configuration   : LFE

    Audio #2
    ID                          : 3
    ID in the original source m : 4352 (0x1100)
    Format                      : AC-3
    Format/Info                 : Audio Coding 3
    Commercial name             : Dolby Digital
    Codec ID                    : A_AC3
    Duration                    : 1 h 56 min
    Bit rate mode               : Constant
    Bit rate                    : 448 kb/s
    Channel(s)                  : 6 channels
    Channel layout              : L R C LFE Ls Rs
    Sampling rate               : 48.0 kHz
    Frame rate                  : 31.250 FPS (1536 SPF)
    Compression mode            : Lossy
    Stream size                 : 372 MiB (1%)
    Language                    : English
    Service kind                : Complete Main
    Default                     : No
    Forced                      : No
    Original source medium      : Blu-ray

    Audio #3
    ID                          : 4
    ID in the original source m : 4353 (0x1101)
    Format                      : E-AC-3
    Format/Info                 : Enhanced AC-3
    Commercial name             : Dolby Digital Plus
    Format profile              : Blu-ray Disc
    Codec ID                    : A_EAC3
    Duration                    : 1 h 56 min
    Bit rate mode               : Constant
    Bit rate                    : 768 kb/s
    Channel(s)                  : 8 channels
    Channel layout              : L R C LFE Ls Rs Lb Rb
    Sampling rate               : 48.0 kHz
    Frame rate                  : 31.250 FPS (1536 SPF)
    Compression mode            : Lossy
    Stream size                 : 639 MiB (1%)
    Language                    : Spanish
    Service kind                : Complete Main
    Default                     : Yes
    Forced                      : No
    Original source medium      : Blu-ray

    Text #1
    ID                          : 5
    ID in the original source m : 4769 (0x12A1)
    Format                      : PGS
    Muxing mode                 : zlib
    Codec ID                    : S_HDMV/PGS
    Codec ID/Info               : Picture based subtitle format used on BDs/HD-DVDs
    Duration                    : 1 h 54 min
    Bit rate                    : 40.7 kb/s
    Frame rate                  : 0.445 FPS
    Count of elements           : 3065
    Stream size                 : 33.4 MiB (0%)
    Language                    : Spanish
    Default                     : No
    Forced                      : No
    Original source medium      : Blu-ray

    Text #2
    ID                          : 6
    ID in the original source m : 4771 (0x12A3)
    Format                      : PGS
    Muxing mode                 : zlib
    Codec ID                    : S_HDMV/PGS
    Codec ID/Info               : Picture based subtitle format used on BDs/HD-DVDs
    Duration                    : 1 h 44 min
    Bit rate                    : 179 b/s
    Frame rate                  : 0.002 FPS
    Count of elements           : 12
    Stream size                 : 138 KiB (0%)
    Language                    : Spanish
    Default                     : No
    Forced                      : No
    Original source medium      : Blu-ray

    Menu
    00:00:00.000                : en:Capítulo 01
    00:06:16.667                : en:Capítulo 02
    00:11:19.679                : en:Capítulo 03
    00:16:13.097                : en:Capítulo 04
    00:21:28.287                : en:Capítulo 05
    00:27:04.539                : en:Capítulo 06
    00:33:31.884                : en:Capítulo 07
    00:38:55.082                : en:Capítulo 08
    00:45:53.250                : en:Capítulo 09
    00:48:17.060                : en:Capítulo 10
    00:56:24.339                : en:Capítulo 11
    01:03:47.490                : en:Capítulo 12
    01:09:16.485                : en:Capítulo 13
    01:14:17.077                : en:Capítulo 14
    01:19:04.614                : en:Capítulo 15
    01:24:10.587                : en:Capítulo 16
    01:31:51.923                : en:Capítulo 17
    01:36:00.588                : en:Capítulo 18
    01:40:03.247                : en:Capítulo 19
    01:46:51.947                : en:Capítulo 20

  • Peso: 52.7 GiB

Sinopsis

Ayer todo el mundo conocía a Los Beatles. Hoy Jack es el único que recuerda sus canciones. Este músico que malvive en una pequeña localidad costera de Inglaterra, se ha resignado a renunciar a sus sueños. Pero tras un misterioso apagón en todo el mundo, se despierta en una línea de tiempo alternativa donde nunca existieron Los Beatles. Entonces será su oportunidad de hacerse inmensamente famoso al ritmo de las míticas canciones del cuarteto de Liverpool, eso sí, se arriesgará a perder a Ellie, su musa y el amor de su vida.

 

Latino: E-AC3 7.1  –  Inglés: TrueHD 7.1

Ficha técnica

Video trailer de la película

Enlaces de descarga

Rip de Bluray

Descargar Yesterday (2019) REMUX 4K HDR Latino – CMHDD


Aportes de DPeliculasHDmega la pass es:dpeliculashdmega.org Aportes de CinemaniaHD la pass es:cinemaniahdd.com Aportes recientes:cinemaniahdd.net
Guardado en : Comedia , Fantasía , Música , Romance

Películas relacionadas

  • Players (2024) NF WEB-DL 1080p Latino

    Players (2024) NF WEB-DL 1080p Latino

    2024
    Players (2024) NF WEB-DL 1080p Latino

    1h 45m 2024

    Descargar Players (2024) NF WEB-DL 1080p Latino. Una periodista deportiva neoyorquina con un ingenioso...

    Director: Trish Sie

    Género: Comedia

    Actores: Veraalba Santa

  • ¡Patos! (2023) HD 1080p Latino

    ¡Patos! (2023) HD 1080p Latino

    2023
    ¡Patos! (2023) HD 1080p Latino

    1h 23m 2023

    Descargar ¡Patos! (2023) HD 1080p Latino. Después de que una familia de patos migratorios aterriza...

    Director: Guy-Laurent Homsy

    Género: Acción

    Actores: Zeno Robinson

  • ¡Patos! (2023) PLACEBO Full HD 1080p Latino

    ¡Patos! (2023) PLACEBO Full HD 1080p Latino

    2023
    ¡Patos! (2023) PLACEBO Full HD 1080p Latino

    1h 23m 2023

    Descargar ¡Patos! (2023) PLACEBO Full HD 1080p Latino. Después de que una familia de patos migratorios...

    Director: Guy-Laurent Homsy

    Género: Acción

    Actores: Zeno Robinson

descargar Yesterday (2019) REMUX 4K HDR Latino – CMHDD 4K HDR 1080p gratis, Yesterday (2019) REMUX 4K HDR Latino – CMHDD 4K HDR mega 1 link, Yesterday (2019) REMUX 4K HDR Latino – CMHDD 4K HDR pelicula completa, descargar Yesterday (2019) REMUX 4K HDR Latino – CMHDD 4K HDR gratis en mega.

Yesterday (2019) REMUX 4K HDR Latino – CMHDD pelicula full hd, Yesterday (2019) REMUX 4K HDR Latino – CMHDD mega latino, Yesterday (2019) REMUX 4K HDR Latino – CMHDD 4k latino, Yesterday (2019) REMUX 4K HDR Latino – CMHDD pelicula completa, Yesterday (2019) REMUX 4K HDR Latino – CMHDD descargar gratis, descargar Yesterday (2019) REMUX 4K HDR Latino – CMHDD pelicula latino, Yesterday (2019) REMUX 4K HDR Latino – CMHDD 1 link mega, Yesterday (2019) REMUX 4K HDR Latino – CMHDD 1 link google drive, Yesterday (2019) REMUX 4K HDR Latino – CMHDD hd 1080p latino.
Comentarios 0