×

¿Problemas para descargar con Mozilla, EDGE? Deshabilita la opción "Abrir vinculos en una pestaña nueva" tal como lo muestra ésta imagen.

Yes, I Do (2018) AMZN WEB-DL 1080p Latino

698 vistas

Información de Yes, I Do (2018) AMZN WEB-DL 1080p Latino

Datos de la película

  • Calidad: WEBDL
  • Audio: Español Latino AC3 2.0 WEB-DL - Ingles AC3 5.1 WEB-DL
  • Subtitulos: Español Latino SRT- FORZADOS SRT
  • Resolución: 1920x1080
  • Formato: MKV
  • Codec: H.264
  • Encoder: cinemaniahdd
  • Mediainfo: Clic para Mostrar Datos Ver
  • Yes,I Do (2018) AMZN WEB-DL 1080p Latino.mkv
    Format                      : Matroska
    Format version              : Version 4
    File size                   : 3.60 GiB
    Duration                    : 1 h 19 min
    Overall bit rate            : 6 481 kb/s
    Movie name                  : Yes,I Do (2018) - CinemaniaHDD.Net
    Encoded date                : UTC 2019-11-07 16:17:07
    Writing application         : mkvmerge v38.0.0 ('The Silent Type') 64-bit
    Writing library             : libebml v1.3.9 + libmatroska v1.5.2

    Video
    ID                          : 1
    Format                      : AVC
    Format/Info                 : Advanced Video Codec
    Format profile              : High@L4
    Format settings             : CABAC / 4 Ref Frames
    Format settings, CABAC      : Yes
    Format settings, ReFrames   : 4 frames
    Codec ID                    : V_MPEG4/ISO/AVC
    Duration                    : 1 h 19 min
    Bit rate                    : 5 999 kb/s
    Width                       : 1 920 pixels
    Height                      : 1 080 pixels
    Display aspect ratio        : 16:9
    Frame rate mode             : Constant
    Frame rate                  : 23.976 (24000/1001) FPS
    Color space                 : YUV
    Chroma subsampling          : 4:2:0
    Bit depth                   : 8 bits
    Scan type                   : Progressive
    Bits/(Pixel*Frame)          : 0.121
    Stream size                 : 3.33 GiB (93%)
    Title                       : CinemaniaHDD
    Default                     : Yes
    Forced                      : No
    Color range                 : Limited
    Color primaries             : BT.709
    Transfer characteristics    : BT.709
    Matrix coefficients         : BT.709

    Audio #1
    ID                          : 2
    Format                      : AC-3
    Format/Info                 : Audio Coding 3
    Commercial name             : Dolby Digital
    Codec ID                    : A_AC3
    Duration                    : 1 h 19 min
    Bit rate mode               : Constant
    Bit rate                    : 256 kb/s
    Channel(s)                  : 2 channels
    Channel layout              : L R
    Sampling rate               : 48.0 kHz
    Frame rate                  : 31.250 FPS (1536 SPF)
    Bit depth                   : 16 bits
    Compression mode            : Lossy
    Stream size                 : 145 MiB (4%)
    Title                       : Español latino [CinemaniaHDD]
    Language                    : Spanish
    Service kind                : Complete Main
    Default                     : Yes
    Forced                      : No

    Audio #2
    ID                          : 3
    Format                      : E-AC-3
    Format/Info                 : Enhanced AC-3
    Commercial name             : Dolby Digital Plus
    Codec ID                    : A_EAC3
    Duration                    : 1 h 19 min
    Bit rate mode               : Constant
    Bit rate                    : 224 kb/s
    Channel(s)                  : 2 channels
    Channel layout              : L R
    Sampling rate               : 48.0 kHz
    Frame rate                  : 31.250 FPS (1536 SPF)
    Compression mode            : Lossy
    Stream size                 : 127 MiB (3%)
    Title                       : Inglés [CinemaniaHDD]
    Language                    : English
    Service kind                : Complete Main
    Default                     : No
    Forced                      : No

    Text #1
    ID                          : 4
    Format                      : UTF-8
    Codec ID                    : S_TEXT/UTF8
    Codec ID/Info               : UTF-8 Plain Text
    Duration                    : 2 min 2 s
    Bit rate                    : 2 b/s
    Count of elements           : 2
    Stream size                 : 34.0 Bytes (0%)
    Title                       : Forzados [CinemaniaHDD]
    Language                    : Spanish
    Default                     : Yes
    Forced                      : Yes

    Text #2
    ID                          : 5
    Format                      : UTF-8
    Codec ID                    : S_TEXT/UTF8
    Codec ID/Info               : UTF-8 Plain Text
    Duration                    : 1 h 17 min
    Bit rate                    : 62 b/s
    Count of elements           : 1213
    Stream size                 : 35.7 KiB (0%)
    Title                       : Español latino [CinemaniaHDD]
    Language                    : Spanish
    Default                     : No
    Forced                      : No

    Text #3
    ID                          : 6
    Format                      : UTF-8
    Codec ID                    : S_TEXT/UTF8
    Codec ID/Info               : UTF-8 Plain Text
    Duration                    : 1 h 18 min
    Bit rate                    : 79 b/s
    Count of elements           : 1998
    Stream size                 : 45.8 KiB (0%)
    Title                       : Inglés [CinemaniaHDD]
    Language                    : English
    Default                     : No
    Forced                      : No

     

  • Peso: 3.60 GiB

Sinopsis

La ocupada chocolatera Charlotte, ha dejado a su novio James en el altar tres veces y ahora ella necesita demostrarle que realmente quiere casarse con él. Las cosas se complican cuando la ex novia de James, Nicole, quien también es dueña de la revista Chocolate Monthly, llega a la escena y dice que quiere que él regrese con ella.

Ficha técnica

Video trailer de la película

Enlaces de descarga

Rip de Bluray

Descargar Yes, I Do (2018) AMZN WEB-DL 1080p Latino




Aportes de DPeliculasHDmega la pass es:dpeliculashdmega.org Aportes de CinemaniaHD la pass es:cinemaniahdd.com
Guardado en : Película de TV , Romance

Películas relacionadas

  • Holiday Harmony (2022) HMAX WEB-DL 1080p Latino

    Holiday Harmony (2022) HMAX WEB-DL 1080p Latino

    2022
    Holiday Harmony (2022) HMAX WEB-DL 1080p Latino

    0h 0m 2022

    Gail es escritora y cantante, y tiene la posibilidad de competir por una oportunidad única, así que...

    Director: Shaun Paul Piccinino

    Género: Comedia

    Actores: Sophia Reid-Gantzert

  • El Diario De Noel (2022) NF WEB-DL 1080p Latino

    El Diario De Noel (2022) NF WEB-DL 1080p Latino

    2022
    El Diario De Noel (2022) NF WEB-DL 1080p Latino

    1h 39m 2022

    En Navidad, mientras vacía la casa de su niñez, un escritor conoce a una mujer que busca a su madre...

    Director: Charles Shyer

    Género: Comedia

    Actores: Treat Williams

  • Bros (2022) HD 1080p Latino

    Bros (2022) HD 1080p Latino

    2022
    Bros (2022) HD 1080p Latino

    1h 55m 2022

    Descargar Bros (2022) HD 1080p Latino. Dos hombres con problemas para comprometerse intentan una relación.

    Director: Nicholas Stoller

    Género: Comedia

    Actores: Ts Madison

  • Bros (2022) PLACEBO Full HD 1080p Latino

    Bros (2022) PLACEBO Full HD 1080p Latino

    2022
    Bros (2022) PLACEBO Full HD 1080p Latino

    1h 55m 2022

    Descargar Bros (2022) PLACEBO Full HD 1080p Latino. Dos hombres con problemas para comprometerse intentan...

    Director: Nicholas Stoller

    Género: Comedia

    Actores: Ts Madison

descargar Yes, I Do (2018) AMZN WEB-DL 1080p Latino WEBDL 1080p gratis, Yes, I Do (2018) AMZN WEB-DL 1080p Latino WEBDL mega 1 link, Yes, I Do (2018) AMZN WEB-DL 1080p Latino WEBDL pelicula completa, descargar Yes, I Do (2018) AMZN WEB-DL 1080p Latino WEBDL gratis en mega.

Yes, I Do (2018) AMZN WEB-DL 1080p Latino pelicula full hd, Yes, I Do (2018) AMZN WEB-DL 1080p Latino mega latino, Yes, I Do (2018) AMZN WEB-DL 1080p Latino 4k latino, Yes, I Do (2018) AMZN WEB-DL 1080p Latino pelicula completa, Yes, I Do (2018) AMZN WEB-DL 1080p Latino descargar gratis, descargar Yes, I Do (2018) AMZN WEB-DL 1080p Latino pelicula latino, Yes, I Do (2018) AMZN WEB-DL 1080p Latino 1 link mega, Yes, I Do (2018) AMZN WEB-DL 1080p Latino 1 link google drive, Yes, I Do (2018) AMZN WEB-DL 1080p Latino hd 1080p latino.
Comentarios 0