×

¿Problemas para descargar con Mozilla, EDGE? Deshabilita la opción "Abrir vinculos en una pestaña nueva" tal como lo muestra ésta imagen.

Yellowstone (2022) Temporada 5 AMZN WEB-DL 1080p Latino

796 vistas

Información de Yellowstone (2022) Temporada 5 AMZN WEB-DL 1080p Latino

Datos de la película

  • Calidad: 1080p
  • Audio: Español Latino AC3 2.0 WEB-DL - Ingles AC3 5.1 WEB-DL
  • Subtitulos: Español Latino SRT- FORZADOS SRT
  • Resolución: 1920x1080
  • Formato: MKV
  • Codec: H.264
  • Encoder: cinemaniahdd
  • Mediainfo: Clic para Mostrar Datos Ver
  • Yellowstone T05E01 AMZN WEB-DL 1080p Latino [CNMNHDD].mkv Format                      : Matroska Format version              : Version 4 File size                   : 4.55 GiB Duration                    : 1 h 4 min Overall bit rate            : 10.2 Mb/s Movie name                  : Yellowstone S05E01 - One Hundred Years Is Nothing [1080p] - CinemaniaHDD.Net Encoded date                : UTC 2022-12-11 19:12:14 Writing application         : mkvmerge v56.1.0 ('My Friend') 64-bit Writing library             : libebml v1.4.2 + libmatroska v1.6.4 Video ID                          : 1 Format                      : AVC Format/Info                 : Advanced Video Codec Format profile              : High@L4 Format settings             : CABAC / 4 Ref Frames Format settings, CABAC      : Yes Format settings, Reference  : 4 frames Codec ID                    : V_MPEG4/ISO/AVC Duration                    : 1 h 4 min Bit rate mode               : Constant Bit rate                    : 8 906 kb/s Nominal bit rate            : 10 000 kb/s Width                       : 1 920 pixels Height                      : 1 080 pixels Display aspect ratio        : 16:9 Frame rate mode             : Constant Frame rate                  : 23.976 (24000/1001) FPS Color space                 : YUV Chroma subsampling          : 4:2:0 Bit depth                   : 8 bits Scan type                   : Progressive Bits/(Pixel*Frame)          : 0.179 Stream size                 : 3.99 GiB (88%) Title                       : CinemaniaHDD Default                     : Yes Forced                      : No Color range                 : Limited Color primaries             : BT.709 Transfer characteristics    : BT.709 Matrix coefficients         : BT.709 Audio #1 ID                          : 2 Format                      : AC-3 Format/Info                 : Audio Coding 3 Commercial name             : Dolby Digital Codec ID                    : A_AC3 Duration                    : 1 h 4 min Bit rate mode               : Constant Bit rate                    : 384 kb/s Channel(s)                  : 2 channels Channel layout              : L R Sampling rate               : 48.0 kHz Frame rate                  : 31.250 FPS (1536 SPF) Compression mode            : Lossy Stream size                 : 176 MiB (4%) Title                       : Español latino [CinemaniaHDD] Language                    : Spanish Service kind                : Complete Main Default                     : Yes Forced                      : No Audio #2 ID                          : 3 Format                      : E-AC-3 Format/Info                 : Enhanced AC-3 Commercial name             : Dolby Digital Plus Codec ID                    : A_EAC3 Duration                    : 1 h 4 min Bit rate mode               : Constant Bit rate                    : 224 kb/s Channel(s)                  : 2 channels Channel layout              : L R Sampling rate               : 48.0 kHz Frame rate                  : 31.250 FPS (1536 SPF) Compression mode            : Lossy Stream size                 : 103 MiB (2%) Title                       : Español latino / E-AC3 [CinemaniaHDD] Language                    : Spanish Service kind                : Complete Main Default                     : No Forced                      : No Audio #3 ID                          : 4 Format                      : E-AC-3 Format/Info                 : Enhanced AC-3 Commercial name             : Dolby Digital Plus Codec ID                    : A_EAC3 Duration                    : 1 h 4 min Bit rate mode               : Constant Bit rate                    : 640 kb/s Channel(s)                  : 6 channels Channel layout              : L R C LFE Ls Rs Sampling rate               : 48.0 kHz Frame rate                  : 31.250 FPS (1536 SPF) Bit depth                   : 32 bits Compression mode            : Lossy Stream size                 : 293 MiB (6%) Title                       : Inglés [CinemaniaHDD] Language                    : English Service kind                : Complete Main Default                     : No Forced                      : No Text #1 ID                          : 5 Format                      : UTF-8 Codec ID                    : S_TEXT/UTF8 Codec ID/Info               : UTF-8 Plain Text Duration                    : 29 min 38 s Bit rate                    : 0 b/s Count of elements           : 5 Stream size                 : 167 Bytes (0%) Title                       : Forzados [CinemaniaHDD] Language                    : Spanish Default                     : Yes Forced                      : Yes Text #2 ID                          : 6 Format                      : UTF-8 Codec ID                    : S_TEXT/UTF8 Codec ID/Info               : UTF-8 Plain Text Duration                    : 1 h 3 min Bit rate                    : 51 b/s Count of elements           : 810 Stream size                 : 24.0 KiB (0%) Title                       : Español latino [CinemaniaHDD] Language                    : Spanish Default                     : No Forced                      : No Text #3 ID                          : 7 Format                      : UTF-8 Codec ID                    : S_TEXT/UTF8 Codec ID/Info               : UTF-8 Plain Text Duration                    : 1 h 3 min Bit rate                    : 57 b/s Count of elements           : 861 Stream size                 : 26.7 KiB (0%) Title                       : Inglés [CinemaniaHDD] Language                    : English Default                     : No Forced                      : No  
  • Peso: 4.55 GiB C/U --- 8 CAPITULOS AGREGADOS

Sinopsis

En medio de alianzas cambiantes, asesinatos sin resolver, heridas abiertas y el respeto ganado con tanto esfuerzo, el patriarca de la familia Dutton, John Dutton, está decidido a proteger su rancho.
8 CAPITULOS AGREGADOS

Ficha técnica

Video trailer de la película

Enlaces de descarga

Rip de Bluray

Descargar Yellowstone (2022) Temporada 5 AMZN WEB-DL 1080p Latino




Aportes de DPeliculasHDmega la pass es:dpeliculashdmega.org Aportes de CinemaniaHD la pass es:cinemaniahdd.com Aportes recientes:cinemaniahdd.net
Guardado en : Drama , Series , Western

Películas relacionadas

descargar Yellowstone (2022) Temporada 5 AMZN WEB-DL 1080p Latino 1080p 1080p gratis, Yellowstone (2022) Temporada 5 AMZN WEB-DL 1080p Latino 1080p mega 1 link, Yellowstone (2022) Temporada 5 AMZN WEB-DL 1080p Latino 1080p serie completa, descargar Yellowstone (2022) Temporada 5 AMZN WEB-DL 1080p Latino 1080p gratis en mega.

Yellowstone (2022) Temporada 5 AMZN WEB-DL 1080p Latino pelicula full hd, Yellowstone (2022) Temporada 5 AMZN WEB-DL 1080p Latino mega latino, Yellowstone (2022) Temporada 5 AMZN WEB-DL 1080p Latino 4k latino, Yellowstone (2022) Temporada 5 AMZN WEB-DL 1080p Latino pelicula completa, Yellowstone (2022) Temporada 5 AMZN WEB-DL 1080p Latino descargar gratis, descargar Yellowstone (2022) Temporada 5 AMZN WEB-DL 1080p Latino pelicula latino, Yellowstone (2022) Temporada 5 AMZN WEB-DL 1080p Latino 1 link mega, Yellowstone (2022) Temporada 5 AMZN WEB-DL 1080p Latino 1 link google drive, Yellowstone (2022) Temporada 5 AMZN WEB-DL 1080p Latino hd 1080p latino.
Comentarios 0