×

¿Problemas para descargar con Mozilla, EDGE? Deshabilita la opción "Abrir vinculos en una pestaña nueva" tal como lo muestra ésta imagen.

Yellowstone (2018-2021) Temporadas [1/4] AMZN WEB-DL 1080p Latino

34.282 vistas

Información de Yellowstone (2018-2021) Temporadas [1/4] AMZN WEB-DL 1080p Latino

Datos de la película

  • Calidad: 1080p
  • Audio: Español Latino AC3 2.0 WEB-DL - Ingles AC3 2.0 WEB-DL
  • Subtitulos: Español Latino SRT- FORZADOS SRT
  • Resolución: 1920x1080
  • Formato: MKV
  • Codec: H.264
  • Encoder: cinemaniahdd
  • Mediainfo: Clic para Mostrar Datos Ver
  • Yellowstone T04E10 AMZN WEB-DL 1080p Latino [CNMNHDD].mkv
    Format                      : Matroska
    Format version              : Version 4
    File size                   : 5.22 GiB
    Duration                    : 1 h 16 min
    Overall bit rate            : 9 797 kb/s
    Movie name                  : Yellowstone S04E10 - Grass on the Streets [1080p] [CBR]
    Encoded date                : UTC 2022-04-02 20:17:52
    Writing application         : mkvmerge v59.0.0 ('Shining Star') 64-bit
    Writing library             : libebml v1.4.2 + libmatroska v1.6.4

    Video
    ID                          : 1
    Format                      : AVC
    Format/Info                 : Advanced Video Codec
    Format profile              : High@L4
    Format settings             : CABAC / 4 Ref Frames
    Format settings, CABAC      : Yes
    Format settings, Reference  : 4 frames
    Codec ID                    : V_MPEG4/ISO/AVC
    Duration                    : 1 h 16 min
    Bit rate mode               : Constant
    Bit rate                    : 9 347 kb/s
    Nominal bit rate            : 10 000 kb/s
    Width                       : 1 920 pixels
    Height                      : 1 080 pixels
    Display aspect ratio        : 16:9
    Frame rate mode             : Constant
    Frame rate                  : 23.976 (24000/1001) FPS
    Color space                 : YUV
    Chroma subsampling          : 4:2:0
    Bit depth                   : 8 bits
    Scan type                   : Progressive
    Bits/(Pixel*Frame)          : 0.188
    Stream size                 : 4.98 GiB (95%)
    Title                       : CinemaniaHDD
    Default                     : Yes
    Forced                      : No
    Color range                 : Limited
    Color primaries             : BT.709
    Transfer characteristics    : BT.709
    Matrix coefficients         : BT.709

    Audio #1
    ID                          : 2
    Format                      : E-AC-3
    Format/Info                 : Enhanced AC-3
    Commercial name             : Dolby Digital Plus
    Codec ID                    : A_EAC3
    Duration                    : 1 h 16 min
    Bit rate mode               : Constant
    Bit rate                    : 224 kb/s
    Channel(s)                  : 2 channels
    Channel layout              : L R
    Sampling rate               : 48.0 kHz
    Frame rate                  : 31.250 FPS (1536 SPF)
    Compression mode            : Lossy
    Stream size                 : 122 MiB (2%)
    Title                       : Español latino [CinemaniaHDD]
    Language                    : Spanish
    Service kind                : Complete Main
    Default                     : Yes
    Forced                      : No

    Audio #2
    ID                          : 3
    Format                      : E-AC-3
    Format/Info                 : Enhanced AC-3
    Commercial name             : Dolby Digital Plus
    Codec ID                    : A_EAC3
    Duration                    : 1 h 16 min
    Bit rate mode               : Constant
    Bit rate                    : 224 kb/s
    Channel(s)                  : 2 channels
    Channel layout              : L R
    Sampling rate               : 48.0 kHz
    Frame rate                  : 31.250 FPS (1536 SPF)
    Compression mode            : Lossy
    Stream size                 : 122 MiB (2%)
    Title                       : Inglés [CinemaniaHDD]
    Language                    : English
    Service kind                : Complete Main
    Default                     : No
    Forced                      : No

    Text
    ID                          : 4
    Format                      : UTF-8
    Codec ID                    : S_TEXT/UTF8
    Codec ID/Info               : UTF-8 Plain Text
    Duration                    : 1 h 14 min
    Bit rate                    : 46 b/s
    Count of elements           : 865
    Stream size                 : 25.3 KiB (0%)
    Title                       : Español latino [CinemaniaHDD]
    Language                    : Spanish
    Default                     : No
    Forced                      : No

     

     

  • Peso: 5.22 GiB Aprox ---- 128 GiB in 39 Chapters.

Sinopsis

John Dutton (Costner) es el propietario del rancho más grande de Estados Unidos. Él y sus hijos entablarán una lucha sin cuartel contra una reserva india y contra el Gobierno federal de Estados Unidos que intenta expandir el parque nacional contiguo a la propiedad de los Dutton.

 

Ficha técnica

Video trailer de la película

Enlaces de descarga

Rip de Bluray

Descargar Yellowstone (2018-2021) Temporadas [1/4] AMZN WEB-DL 1080p Latino




Aportes de DPeliculasHDmega la pass es:dpeliculashdmega.org Aportes de CinemaniaHD la pass es:cinemaniahdd.com
Guardado en : Drama , Series , Western

Películas relacionadas

descargar Yellowstone (2018-2021) Temporadas [1/4] AMZN WEB-DL 1080p Latino 1080p 1080p gratis, Yellowstone (2018-2021) Temporadas [1/4] AMZN WEB-DL 1080p Latino 1080p mega 1 link, Yellowstone (2018-2021) Temporadas [1/4] AMZN WEB-DL 1080p Latino 1080p serie completa, descargar Yellowstone (2018-2021) Temporadas [1/4] AMZN WEB-DL 1080p Latino 1080p gratis en mega.

Yellowstone (2018-2021) Temporadas [1/4] AMZN WEB-DL 1080p Latino pelicula full hd, Yellowstone (2018-2021) Temporadas [1/4] AMZN WEB-DL 1080p Latino mega latino, Yellowstone (2018-2021) Temporadas [1/4] AMZN WEB-DL 1080p Latino 4k latino, Yellowstone (2018-2021) Temporadas [1/4] AMZN WEB-DL 1080p Latino pelicula completa, Yellowstone (2018-2021) Temporadas [1/4] AMZN WEB-DL 1080p Latino descargar gratis, descargar Yellowstone (2018-2021) Temporadas [1/4] AMZN WEB-DL 1080p Latino pelicula latino, Yellowstone (2018-2021) Temporadas [1/4] AMZN WEB-DL 1080p Latino 1 link mega, Yellowstone (2018-2021) Temporadas [1/4] AMZN WEB-DL 1080p Latino 1 link google drive, Yellowstone (2018-2021) Temporadas [1/4] AMZN WEB-DL 1080p Latino hd 1080p latino.
Comentarios 4
  • kip - 06 diciembre, 2021

    van 6 capitulos

  • Pablo Luna - 23 noviembre, 2021

    Gracias amigos!!!

  • sergio - 16 noviembre, 2021

    muchas gracias por tremenda serie tendras las demas temporadas bro gracias de antemano

  • Pablo Luna - 10 noviembre, 2021

    Hola AMIGOS, excelente aporte, muy buena serie, ojalá puedan subir todas la temporadas anteriores con esta calidad.
    Un abrazo!!!