×

¿Problemas para descargar con Mozilla, EDGE? Deshabilita la opción "Abrir vinculos en una pestaña nueva" tal como lo muestra ésta imagen.

Yao (2019) WEB-DL 1080p Latino

369 vistas

Información de Yao (2019) WEB-DL 1080p Latino

Datos de la película

  • Calidad: WEBDL
  • Audio: Español Latino AC3 2.0 iTunes - Ingles AC3 5.1 iTunes
  • Subtitulos: Español Latino SRT
  • Resolución: 1912x1026
  • Formato: MKV
  • Codec: H.264
  • Encoder: CinemaniaHD
  • Mediainfo: Clic para Mostrar Datos Ver
  • Yao (2019) WEB-DL 1080p Latino.mkv
    Format                      : Matroska
    Format version              : Version 4
    File size                   : 4.08 GiB
    Duration                    : 1 h 42 min
    Overall bit rate            : 5 673 kb/s
    Encoded date                : UTC 2020-05-27 13:23:41
    Writing application         : mkvmerge v46.0.0 ('No Deeper Escape') 64-bit
    Writing library             : libebml v1.3.10 + libmatroska v1.5.2
    Cover                       : Yes
    Attachments                 : cover.jpg

    Video
    ID                          : 1
    Format                      : AVC
    Format/Info                 : Advanced Video Codec
    Format profile              : High@L4
    Format settings             : CABAC / 4 Ref Frames
    Format settings, CABAC      : Yes
    Format settings, Reference  : 4 frames
    Codec ID                    : V_MPEG4/ISO/AVC
    Duration                    : 1 h 42 min
    Bit rate                    : 5 158 kb/s
    Width                       : 1 912 pixels
    Height                      : 1 026 pixels
    Display aspect ratio        : 1.85:1
    Frame rate mode             : Constant
    Frame rate                  : 24.000 FPS
    Color space                 : YUV
    Chroma subsampling          : 4:2:0
    Bit depth                   : 8 bits
    Scan type                   : Progressive
    Bits/(Pixel*Frame)          : 0.110
    Stream size                 : 3.71 GiB (91%)
    Language                    : English
    Default                     : Yes
    Forced                      : No
    Color range                 : Limited
    Color primaries             : BT.709
    Transfer characteristics    : BT.709
    Matrix coefficients         : BT.709

    Audio #1
    ID                          : 2
    Format                      : AAC LC
    Format/Info                 : Advanced Audio Codec Low Complexity
    Codec ID                    : A_AAC-2
    Duration                    : 1 h 42 min
    Bit rate                    : 128 kb/s
    Channel(s)                  : 2 channels
    Channel layout              : L R
    Sampling rate               : 48.0 kHz
    Frame rate                  : 46.875 FPS (1024 SPF)
    Compression mode            : Lossy
    Delay relative to video     : -42 ms
    Stream size                 : 94.1 MiB (2%)
    Language                    : Spanish
    Default                     : Yes
    Forced                      : No

    Audio #2
    ID                          : 3
    Format                      : AC-3
    Format/Info                 : Audio Coding 3
    Commercial name             : Dolby Digital
    Codec ID                    : A_AC3
    Duration                    : 1 h 42 min
    Bit rate mode               : Constant
    Bit rate                    : 384 kb/s
    Channel(s)                  : 6 channels
    Channel layout              : L R C LFE Ls Rs
    Sampling rate               : 48.0 kHz
    Frame rate                  : 31.250 FPS (1536 SPF)
    Compression mode            : Lossy
    Delay relative to video     : -42 ms
    Stream size                 : 283 MiB (7%)
    Language                    : French
    Service kind                : Complete Main
    Default                     : No
    Forced                      : No

    Text
    ID                          : 4
    Format                      : UTF-8
    Codec ID                    : S_TEXT/UTF8
    Codec ID/Info               : UTF-8 Plain Text
    Duration                    : 1 h 38 min
    Bit rate                    : 41 b/s
    Count of elements           : 933
    Stream size                 : 30.4 KiB (0%)
    Language                    : Spanish
    Default                     : No
    Forced                      : No

    Menu
    00:00:00.000                : en:Capítulo 1
    00:14:17.458                : en:Capítulo 2
    00:26:44.874                : en:Capítulo 3
    00:40:14.331                : en:Capítulo 4
    00:55:19.081                : en:Capítulo 5
    01:09:50.371                : en:Capítulo 6
    01:24:49.537                : en:Capítulo 7
    01:42:53.995                : en:Capítulo 1

  • Peso: 4.08 GiB

Sinopsis

Desde su aldea en el norte de Senegal, Yao es un niño de 13 años dispuesto a hacer cualquier cosa para encontrarse con su héroe: Seydou Tall, un famoso actor francés. Invitado a Dakar para promocionar su nuevo libro, este último va a su país de origen por primera vez. Para cumplir su sueño, el joven Yao organiza su fuga y desafía solo 387 kilómetros hasta la capital. Tocado por este niño, el actor decide huir de sus obligaciones y acompañarlo a casa. Pero en los caminos polvorientos e inciertos de Senegal, Seydou entiende que mientras rueda hacia el pueblo del niño, también rueda hacia sus raíces.

Ficha técnica

Video trailer de la película

Enlaces de descarga

Rip de Bluray

Descargar Yao (2019) WEB-DL 1080p Latino




Aportes de DPeliculasHDmega la pass es:dpeliculashdmega.org Aportes de CinemaniaHD la pass es:cinemaniahdd.com
Guardado en : Comedia , Drama

Películas relacionadas

  • Willow (2022) Temporada 1 WEB-DL 1080p Latino

    Willow (2022) Temporada 1 WEB-DL 1080p Latino

    2022
    Willow (2022) Temporada 1 WEB-DL 1080p Latino

    0h 0m 2022

    Descargar Willow (2022) Temporada 1 WEB-DL 1080p Latino. Veinte años después de vencer a la reina Bavmorda,...

    Género: Action & Adventure

    Actores: Warwick Davis

  • Quantum Leap (2022) Temporada 1 WEB-DL 1080p Latino

    Quantum Leap (2022) Temporada 1 WEB-DL 1080p Latino

    2022
    Quantum Leap (2022) Temporada 1 WEB-DL 1080p Latino

    0h 43m 2022

    Han pasado 27 años desde que el Dr. Sam Beckett pisó el acelerador Quantum Leap y desapareció. Ahora...

    Director: Donald P. Bellisario

    Género: Drama

    Actores: Raymond Lee

  • Shrek 2 (2004) REMUX 4K HDR Latino – CMHDD

    Shrek 2 (2004) REMUX 4K HDR Latino – CMHDD

    2004
    Shrek 2 (2004) REMUX 4K HDR Latino – CMHDD

    1h 32m 2004

    Cuando Shrek y la princesa Fiona regresan de su luna de miel, los padres de ella los invitan a visitar...

    Director: Matt Aspbury

    Género: Animación

    Actores: Wendy Bilanski

descargar Yao (2019) WEB-DL 1080p Latino WEBDL 1080p gratis, Yao (2019) WEB-DL 1080p Latino WEBDL mega 1 link, Yao (2019) WEB-DL 1080p Latino WEBDL pelicula completa, descargar Yao (2019) WEB-DL 1080p Latino WEBDL gratis en mega.

Yao (2019) WEB-DL 1080p Latino pelicula full hd, Yao (2019) WEB-DL 1080p Latino mega latino, Yao (2019) WEB-DL 1080p Latino 4k latino, Yao (2019) WEB-DL 1080p Latino pelicula completa, Yao (2019) WEB-DL 1080p Latino descargar gratis, descargar Yao (2019) WEB-DL 1080p Latino pelicula latino, Yao (2019) WEB-DL 1080p Latino 1 link mega, Yao (2019) WEB-DL 1080p Latino 1 link google drive, Yao (2019) WEB-DL 1080p Latino hd 1080p latino.
Comentarios 0