×

¿Problemas para descargar con Mozilla, EDGE? Deshabilita la opción "Abrir vinculos en una pestaña nueva" tal como lo muestra ésta imagen.

¿Y qué tendrá que ver el amor? (2022) REMUX 1080p Latino

130 vistas

Información de ¿Y qué tendrá que ver el amor? (2022) REMUX 1080p Latino

Datos de la película

  • Calidad: Full 1080p
  • Audio: Español Latino AC3 2.0 WEB-DL - Ingles DTS 5.1 BLURAY
  • Subtitulos: Español Latino SRT- FORZADOS SRT
  • Resolución: 1920x1080p
  • Formato: MKV
  • Codec: H.264
  • Encoder: Melkor
  • Mediainfo: Clic para Mostrar Datos Ver
  • Y Que Tendra Que Ver El Amor (2022) REMUX 1080p Latino.mkv
    Format                      : Matroska
    Format version              : Version 4
    File size                   : 27.7 GiB
    Duration                    : 1 h 49 min
    Overall bit rate mode       : Variable
    Overall bit rate            : 36.4 Mb/s
    Movie name                  : Whats Love got to do with it (2022) CinemaniaHDD.Net
    Encoded date                : UTC 2023-07-14 04:20:27
    Writing application         : mkvmerge v56.1.0 ('My Friend') 64-bit
    Writing library             : libebml v1.4.2 + libmatroska v1.6.4
    Attachments                 : CINEMANIAHD.png
    Site                        : CinemaniaHDD.Net
    Uploader                    : Melkor

    Video
    ID                          : 1
    ID in the original source m : 4113 (0x1011)
    Format                      : AVC
    Format/Info                 : Advanced Video Codec
    Format profile              : High@L4.1
    Format settings             : CABAC / 4 Ref Frames
    Format settings, CABAC      : Yes
    Format settings, Reference  : 4 frames
    Codec ID                    : V_MPEG4/ISO/AVC
    Duration                    : 1 h 49 min
    Bit rate mode               : Variable
    Bit rate                    : 32.9 Mb/s
    Maximum bit rate            : 36.0 Mb/s
    Width                       : 1 920 pixels
    Height                      : 1 080 pixels
    Display aspect ratio        : 16:9
    Frame rate mode             : Constant
    Frame rate                  : 24.000 FPS
    Color space                 : YUV
    Chroma subsampling          : 4:2:0
    Bit depth                   : 8 bits
    Scan type                   : Progressive
    Bits/(Pixel*Frame)          : 0.660
    Stream size                 : 25.0 GiB (90%)
    Title                       : REMUX HD1080p [CinemaniaHDD]
    Default                     : Yes
    Forced                      : Yes
    Original source medium      : Blu-ray

    Audio #1
    ID                          : 2
    Format                      : AC-3
    Format/Info                 : Audio Coding 3
    Commercial name             : Dolby Digital
    Codec ID                    : A_AC3
    Duration                    : 1 h 49 min
    Bit rate mode               : Constant
    Bit rate                    : 256 kb/s
    Channel(s)                  : 2 channels
    Channel layout              : L R
    Sampling rate               : 48.0 kHz
    Frame rate                  : 31.250 FPS (1536 SPF)
    Compression mode            : Lossy
    Stream size                 : 200 MiB (1%)
    Title                       : Español Latino [CinemaniaHDD]
    Language                    : Spanish
    Service kind                : Complete Main
    Default                     : Yes
    Forced                      : Yes

    Audio #2
    ID                          : 3
    ID in the original source m : 4353 (0x1101)
    Format                      : DTS XLL
    Format/Info                 : Digital Theater Systems
    Commercial name             : DTS-HD Master Audio
    Codec ID                    : A_DTS
    Duration                    : 1 h 49 min
    Bit rate mode               : Variable
    Bit rate                    : 3 276 kb/s
    Channel(s)                  : 6 channels
    Channel layout              : C L R Ls Rs LFE
    Sampling rate               : 48.0 kHz
    Frame rate                  : 93.750 FPS (512 SPF)
    Bit depth                   : 24 bits
    Compression mode            : Lossless
    Stream size                 : 2.50 GiB (9%)
    Title                       : Ingles [CinemaniaHDD]
    Language                    : English
    Default                     : No
    Forced                      : No
    Original source medium      : Blu-ray

    Text #1
    ID                          : 4
    Format                      : UTF-8
    Codec ID                    : S_TEXT/UTF8
    Codec ID/Info               : UTF-8 Plain Text
    Duration                    : 1 h 40 min
    Bit rate                    : 1 b/s
    Count of elements           : 23
    Stream size                 : 793 Bytes (0%)
    Title                       : Forzados-SRT [CinemaniaHDD]
    Language                    : Spanish
    Default                     : Yes
    Forced                      : Yes

    Text #2
    ID                          : 5
    Format                      : UTF-8
    Codec ID                    : S_TEXT/UTF8
    Codec ID/Info               : UTF-8 Plain Text
    Duration                    : 1 h 44 min
    Bit rate                    : 66 b/s
    Count of elements           : 1721
    Stream size                 : 50.8 KiB (0%)
    Title                       : Español-SRT [CinemaniaHDD]
    Language                    : Spanish
    Default                     : No
    Forced                      : No

    Text #3
    ID                          : 6
    Format                      : UTF-8
    Codec ID                    : S_TEXT/UTF8
    Codec ID/Info               : UTF-8 Plain Text
    Duration                    : 1 h 43 min
    Bit rate                    : 71 b/s
    Count of elements           : 1882
    Stream size                 : 54.0 KiB (0%)
    Title                       : Ingles [CinemaniaHDD]
    Language                    : English
    Default                     : No
    Forced                      : No

    Menu
    00:00:00.000                : Chapter 01
    00:09:44.041                : Chapter 02
    00:19:24.958                : Chapter 03
    00:30:20.541                : Chapter 04
    00:40:45.583                : Chapter 05
    00:50:11.208                : Chapter 06
    01:00:38.291                : Chapter 07
    01:11:29.291                : Chapter 08
    01:23:47.541                : Chapter 09
    01:33:31.041                : Chapter 10
    01:44:38.375                : Chapter 11

  • Peso: 27.7 GiB

Sinopsis

Descargar ¿Y qué tendrá que ver el amor? (2022) REMUX 1080p Latino. ¿Cómo encuentras un amor duradero hoy en día? Para la directora de documentales y adicta a las aplicaciones de citas Zoe, deslizar el dedo hacia la derecha solo le ha proporcionado un flujo interminable de Mr. Imperfectos, para gran consternación de su excéntrica madre Cath. Para su amigo de la infancia y vecino Kaz, la respuesta es seguir el ejemplo de sus padres y optar por un matrimonio concertado (o “asistido”) con una brillante y hermosa novia de Pakistán. Mientras Zoe filma el esperanzador viaje de su amigo desde Londres a Lahore para casarse con una extraña elegida por sus padres, comienza a preguntarse si podría tener algo que aprender de un enfoque diferente para encontrar el amor.

Ficha técnica

Video trailer de la película

Enlaces de descarga

Rip de Bluray

Descargar ¿Y qué tendrá que ver el amor? (2022) REMUX 1080p Latino




Aportes de DPeliculasHDmega la pass es:dpeliculashdmega.org Aportes de CinemaniaHD la pass es:cinemaniahdd.com Aportes recientes:cinemaniahdd.net
Guardado en : Comedia , Remux , Romance

Películas relacionadas

  • Good Burger 2 (2023) HD 1080p Latino

    Good Burger 2 (2023) HD 1080p Latino

    2023
    Good Burger 2 (2023) HD 1080p Latino

    1h 31m 2023

    Descargar Good Burger 2 (2023) HD 1080p Latino. Después de que su último invento falla, Ed le da la...

    Director: Ross Novie

    Género: Comedia

    Actores: Zoe Saldana

  • Good Burger 2 (2023) PLACEBO Full HD 1080p Latino

    Good Burger 2 (2023) PLACEBO Full HD 1080p Latino

    2023
    Good Burger 2 (2023) PLACEBO Full HD 1080p Latino

    1h 31m 2023

    Descargar Good Burger 2 (2023) PLACEBO Full HD 1080p Latino. Después de que su último invento falla,...

    Director: Ross Novie

    Género: Comedia

    Actores: Zoe Saldana

  • Good Burger 2 (2023) REMUX 1080p Latino

    Good Burger 2 (2023) REMUX 1080p Latino

    2023
    Good Burger 2 (2023) REMUX 1080p Latino

    1h 31m 2023

    Descargar Good Burger 2 (2023) REMUX 1080p Latino. Después de que su último invento falla, Ed le da...

    Director: Ross Novie

    Género: Comedia

    Actores: Zoe Saldana

descargar ¿Y qué tendrá que ver el amor? (2022) REMUX 1080p Latino Full 1080p 1080p gratis, ¿Y qué tendrá que ver el amor? (2022) REMUX 1080p Latino Full 1080p mega 1 link, ¿Y qué tendrá que ver el amor? (2022) REMUX 1080p Latino Full 1080p pelicula completa, descargar ¿Y qué tendrá que ver el amor? (2022) REMUX 1080p Latino Full 1080p gratis en mega.

¿Y qué tendrá que ver el amor? (2022) REMUX 1080p Latino pelicula full hd, ¿Y qué tendrá que ver el amor? (2022) REMUX 1080p Latino mega latino, ¿Y qué tendrá que ver el amor? (2022) REMUX 1080p Latino 4k latino, ¿Y qué tendrá que ver el amor? (2022) REMUX 1080p Latino pelicula completa, ¿Y qué tendrá que ver el amor? (2022) REMUX 1080p Latino descargar gratis, descargar ¿Y qué tendrá que ver el amor? (2022) REMUX 1080p Latino pelicula latino, ¿Y qué tendrá que ver el amor? (2022) REMUX 1080p Latino 1 link mega, ¿Y qué tendrá que ver el amor? (2022) REMUX 1080p Latino 1 link google drive, ¿Y qué tendrá que ver el amor? (2022) REMUX 1080p Latino hd 1080p latino.
Comentarios 0