×

¿Problemas para descargar con Mozilla, EDGE? Deshabilita la opción "Abrir vinculos en una pestaña nueva" tal como lo muestra ésta imagen.

Y dónde está el fantasma (2013) Full HD 1080p Latino – CMHDD

492 vistas

Información de Y dónde está el fantasma (2013) Full HD 1080p Latino – CMHDD

Datos de la película

  • Calidad: Full 1080p
  • Audio: Español Latino AC3 2.0 DVD - Ingles DTS 5.1 BLURAY
  • Subtitulos: Español Latino SRT
  • Resolución: 1920x1080p
  • Formato: MKV
  • Codec: H.264
  • Encoder: Dracarys
  • Mediainfo: Clic para Mostrar Datos Ver
  • Format                      : Matroska
    Format version              : Version 4
    File size                   : 7.45 GiB
    Duration                    : 1 h 26 min
    Overall bit rate mode       : Variable
    Overall bit rate            : 12.3 Mb/s
    Movie name                  : Y dónde está el fantasma (2013) Full HD 1080p Latino - CMHDD
    Encoded date                : UTC 2020-05-29 01:08:03
    Writing application         : mkvmerge v46.0.0 ('No Deeper Escape') 64-bit
    Writing library             : libebml v1.3.10 + libmatroska v1.5.2

    Video
    ID                          : 1
    Format                      : AVC
    Format/Info                 : Advanced Video Codec
    Format profile              : High@L4.1
    Format settings             : CABAC / 4 Ref Frames
    Format settings, CABAC      : Yes
    Format settings, Reference  : 4 frames
    Codec ID                    : V_MPEG4/ISO/AVC
    Duration                    : 1 h 26 min
    Bit rate                    : 8 798 kb/s
    Width                       : 1 920 pixels
    Height                      : 1 080 pixels
    Display aspect ratio        : 16:9
    Frame rate mode             : Constant
    Frame rate                  : 23.976 (24000/1001) FPS
    Color space                 : YUV
    Chroma subsampling          : 4:2:0
    Bit depth                   : 8 bits
    Scan type                   : Progressive
    Bits/(Pixel*Frame)          : 0.177
    Stream size                 : 5.31 GiB (71%)
    Writing library             : x264 core 157 r2935 545de2f
    Encoding settings           : cabac=1 / ref=4 / deblock=1:0:0 / analyse=0x3:0x133 / me=tesa / subme=11 / psy=1 / psy_rd=1.00:0.00 / mixed_ref=1 / me_range=24 / chroma_me=1 / trellis=2 / 8x8dct=1 / cqm=0 / deadzone=21,11 / fast_pskip=0 / chroma_qp_offset=-2 / threads=24 / lookahead_threads=6 / sliced_threads=0 / nr=0 / decimate=1 / interlaced=0 / bluray_compat=0 / constrained_intra=0 / bframes=16 / b_pyramid=2 / b_adapt=2 / b_bias=0 / direct=3 / weightb=1 / open_gop=0 / weightp=2 / keyint=240 / keyint_min=24 / scenecut=40 / intra_refresh=0 / rc_lookahead=60 / rc=crf / mbtree=1 / crf=20.0 / qcomp=0.60 / qpmin=0 / qpmax=69 / qpstep=4 / vbv_maxrate=62500 / vbv_bufsize=78125 / crf_max=0.0 / nal_hrd=none / filler=0 / ip_ratio=1.40 / aq=1:1.00
    Default                     : Yes
    Forced                      : No
    Color range                 : Limited
    Color primaries             : BT.709
    Transfer characteristics    : BT.709
    Matrix coefficients         : BT.709

    Audio #1
    ID                          : 2
    Format                      : AC-3
    Format/Info                 : Audio Coding 3
    Commercial name             : Dolby Digital
    Codec ID                    : A_AC3
    Duration                    : 1 h 26 min
    Bit rate mode               : Constant
    Bit rate                    : 192 kb/s
    Channel(s)                  : 2 channels
    Channel layout              : L R
    Sampling rate               : 48.0 kHz
    Frame rate                  : 31.250 FPS (1536 SPF)
    Compression mode            : Lossy
    Stream size                 : 118 MiB (2%)
    Language                    : Spanish
    Service kind                : Complete Main
    Default                     : Yes
    Forced                      : No

    Audio #2
    ID                          : 3
    Format                      : DTS XLL
    Format/Info                 : Digital Theater Systems
    Commercial name             : DTS-HD Master Audio
    Codec ID                    : A_DTS
    Duration                    : 1 h 26 min
    Bit rate mode               : Variable
    Bit rate                    : 3 354 kb/s
    Channel(s)                  : 6 channels
    Channel layout              : C L R Ls Rs LFE
    Sampling rate               : 48.0 kHz
    Frame rate                  : 93.750 FPS (512 SPF)
    Bit depth                   : 24 bits
    Compression mode            : Lossless
    Stream size                 : 2.02 GiB (27%)
    Language                    : English
    Default                     : No
    Forced                      : No

    Text
    ID                          : 4
    Format                      : UTF-8
    Codec ID                    : S_TEXT/UTF8
    Codec ID/Info               : UTF-8 Plain Text
    Duration                    : 1 h 24 min
    Bit rate                    : 80 b/s
    Count of elements           : 1697
    Stream size                 : 49.5 KiB (0%)
    Language                    : Spanish
    Default                     : No
    Forced                      : No

    Menu
    00:00:00.000                : :00:00:00.000
    00:04:18.967                : :00:04:18.967
    00:06:59.461                : :00:06:59.377
    00:11:49.334                : :00:11:49.334
    00:15:40.606                : :00:15:40.606
    00:17:27.171                : :00:17:27.171
    00:22:14.750                : :00:22:14.750
    00:28:05.559                : :00:28:05.559
    00:33:22.334                : :00:33:22.209
    00:37:39.340                : :00:37:39.340
    00:42:42.060                : :00:42:42.018
    00:47:30.973                : :00:47:30.973
    00:50:04.585                : :00:50:04.585
    00:53:33.794                : :00:53:33.794
    00:57:44.586                : :00:57:44.586
    01:02:17.567                : :01:02:17.567
    01:07:58.116                : :01:07:58.116
    01:12:58.624                : :01:12:58.583
    01:18:26.577                : :01:18:26.493
    01:21:36.892                : :01:21:36.892

  • Peso: 7.45 GiB

Sinopsis

Una joven pareja, Malcolm (Marlon Wayans) y Kisha (Essence Atkins), se acaban de mudar a la casa de sus sueño. Al instalarse, descubren que no están solos en ella. Pero no es la casa la que está embrujada, sino la novia de Malcolm, que parece estar poseída por un demonio. Malcolm contrata a un sacerdote para librarla de este intruso, decidido a no dejar que el espíritu maligno arruine su relación… o, más importante aún, su vida sexual…

Ficha técnica

Video trailer de la película

Enlaces de descarga

Rip de Bluray

Descargar Y dónde está el fantasma (2013) Full HD 1080p Latino – CMHDD




Aportes de DPeliculasHDmega la pass es:dpeliculashdmega.org Aportes de CinemaniaHD la pass es:cinemaniahdd.com

Películas relacionadas

descargar Y dónde está el fantasma (2013) Full HD 1080p Latino – CMHDD Full 1080p 1080p gratis, Y dónde está el fantasma (2013) Full HD 1080p Latino – CMHDD Full 1080p mega 1 link, Y dónde está el fantasma (2013) Full HD 1080p Latino – CMHDD Full 1080p pelicula completa, descargar Y dónde está el fantasma (2013) Full HD 1080p Latino – CMHDD Full 1080p gratis en mega.

Y dónde está el fantasma (2013) Full HD 1080p Latino – CMHDD pelicula full hd, Y dónde está el fantasma (2013) Full HD 1080p Latino – CMHDD mega latino, Y dónde está el fantasma (2013) Full HD 1080p Latino – CMHDD 4k latino, Y dónde está el fantasma (2013) Full HD 1080p Latino – CMHDD pelicula completa, Y dónde está el fantasma (2013) Full HD 1080p Latino – CMHDD descargar gratis, descargar Y dónde está el fantasma (2013) Full HD 1080p Latino – CMHDD pelicula latino, Y dónde está el fantasma (2013) Full HD 1080p Latino – CMHDD 1 link mega, Y dónde está el fantasma (2013) Full HD 1080p Latino – CMHDD 1 link google drive, Y dónde está el fantasma (2013) Full HD 1080p Latino – CMHDD hd 1080p latino.
Comentarios 0