×

¿Problemas para descargar con Mozilla, EDGE? Deshabilita la opción "Abrir vinculos en una pestaña nueva" tal como lo muestra ésta imagen.

Y dónde está el fantasma 2 (2014) REMUX 1080p Latino – CMHDD

475 vistas

Información de Y dónde está el fantasma 2 (2014) REMUX 1080p Latino – CMHDD

Datos de la película

  • Calidad: Full 1080p
  • Audio: Español Latino AC3 2.0 DVD - Ingles DTS 5.1 BLURAY
  • Subtitulos: Español Latino SRT
  • Resolución: 1920x1080p
  • Formato: MKV
  • Codec: H.264
  • Encoder: Dracarys
  • Mediainfo: Clic para Mostrar Datos Ver
  • Format                      : Matroska
    Format version              : Version 4
    File size                   : 21.3 GiB
    Duration                    : 1 h 26 min
    Overall bit rate mode       : Variable
    Overall bit rate            : 35.1 Mb/s
    Movie name                  : Y dónde está el fantasma 2 (2014) REMUX 1080p Latino - CMHDD
    Encoded date                : UTC 2020-05-29 01:10:01
    Writing application         : mkvmerge v46.0.0 ('No Deeper Escape') 64-bit
    Writing library             : libebml v1.3.10 + libmatroska v1.5.2

    Video
    ID                          : 1
    Format                      : AVC
    Format/Info                 : Advanced Video Codec
    Format profile              : High@L4.1
    Format settings             : CABAC / 4 Ref Frames
    Format settings, CABAC      : Yes
    Format settings, Reference  : 4 frames
    Codec ID                    : V_MPEG4/ISO/AVC
    Duration                    : 1 h 26 min
    Bit rate mode               : Variable
    Bit rate                    : 31.7 Mb/s
    Maximum bit rate            : 35.0 Mb/s
    Width                       : 1 920 pixels
    Height                      : 1 080 pixels
    Display aspect ratio        : 16:9
    Frame rate mode             : Constant
    Frame rate                  : 23.976 (24000/1001) FPS
    Color space                 : YUV
    Chroma subsampling          : 4:2:0
    Bit depth                   : 8 bits
    Scan type                   : Progressive
    Bits/(Pixel*Frame)          : 0.638
    Stream size                 : 19.3 GiB (90%)
    Default                     : Yes
    Forced                      : No

    Audio #1
    ID                          : 2
    Format                      : AC-3
    Format/Info                 : Audio Coding 3
    Commercial name             : Dolby Digital
    Codec ID                    : A_AC3
    Duration                    : 1 h 26 min
    Bit rate mode               : Constant
    Bit rate                    : 256 kb/s
    Channel(s)                  : 2 channels
    Channel layout              : L R
    Sampling rate               : 48.0 kHz
    Frame rate                  : 31.250 FPS (1536 SPF)
    Compression mode            : Lossy
    Stream size                 : 159 MiB (1%)
    Language                    : Spanish
    Service kind                : Complete Main
    Default                     : Yes
    Forced                      : No

    Audio #2
    ID                          : 3
    Format                      : DTS XLL
    Format/Info                 : Digital Theater Systems
    Commercial name             : DTS-HD Master Audio
    Codec ID                    : A_DTS
    Duration                    : 1 h 26 min
    Bit rate mode               : Variable
    Bit rate                    : 3 132 kb/s
    Channel(s)                  : 6 channels
    Channel layout              : C L R Ls Rs LFE
    Sampling rate               : 48.0 kHz
    Frame rate                  : 93.750 FPS (512 SPF)
    Bit depth                   : 24 bits
    Compression mode            : Lossless
    Stream size                 : 1.90 GiB (9%)
    Language                    : English
    Default                     : No
    Forced                      : No

    Text
    ID                          : 4
    Format                      : UTF-8
    Codec ID                    : S_TEXT/UTF8
    Codec ID/Info               : UTF-8 Plain Text
    Duration                    : 1 h 20 min
    Bit rate                    : 91 b/s
    Count of elements           : 1428
    Stream size                 : 53.6 KiB (0%)
    Language                    : Spanish
    Default                     : No
    Forced                      : No

    Menu
    00:00:00.000                : en:Chapter 01
    00:03:38.176                : en:Chapter 02
    00:07:40.084                : en:Chapter 03
    00:12:18.487                : en:Chapter 04
    00:17:27.838                : en:Chapter 05
    00:23:32.661                : en:Chapter 06
    00:29:36.399                : en:Chapter 07
    00:33:52.989                : en:Chapter 08
    00:37:33.542                : en:Chapter 09
    00:40:22.002                : en:Chapter 10
    00:43:05.833                : en:Chapter 11
    00:47:35.602                : en:Chapter 12
    00:50:14.261                : en:Chapter 13
    00:55:32.120                : en:Chapter 14
    01:00:16.821                : en:Chapter 15
    01:04:35.746                : en:Chapter 16
    01:08:17.718                : en:Chapter 17
    01:12:14.371                : en:Chapter 18
    01:15:57.261                : en:Chapter 19
    01:20:03.548                : en:Chapter 20
    01:26:53.333                : en:Chapter 21
     

  • Peso: 21.3 GiB

Sinopsis

Después de haber exorcizado los demonios de su ex, Malcolm comienza de nuevo con su nueva novia y sus dos hijos. Después de mudarse a la casa de sus sueños, sin embargo, Malcolm está rodeado una vez más por extraños acontecimientos paranormales.

Ficha técnica

  • Titulo original: A Haunted House 2
  • Fecha de lanzamiento: 17-04-2014 (United States of America)
  • Director: Michael Tiddes
  • Género: Comedia, Terror

Video trailer de la película

Enlaces de descarga

Rip de Bluray

Descargar Y dónde está el fantasma 2 (2014) REMUX 1080p Latino – CMHDD




Aportes de DPeliculasHDmega la pass es:dpeliculashdmega.org Aportes de CinemaniaHD la pass es:cinemaniahdd.com
Guardado en : Comedia , Terror

Películas relacionadas

  • Lobo Vikingo (2022) NF WEB-DL 1080p Latino

    Lobo Vikingo (2022) NF WEB-DL 1080p Latino

    2022
    Lobo Vikingo (2022) NF WEB-DL 1080p Latino

    1h 38m 2022

    Descargar Lobo Vikingo (2022) NF WEB-DL 1080p Latino. Thale (17) acaba de mudarse con sus padres a un...

    Director: Stig Svendsen

    Género: Netflix

    Actores: Vidar Magnussen

  • Hombre de familia (2000) REMUX 1080p Latino

    Hombre de familia (2000) REMUX 1080p Latino

    2000
    Hombre de familia (2000) REMUX 1080p Latino

    2h 1m 2000

    Descargar Hombre de familia (2000) REMUX 1080p Latino. Jack Campbell es un egocéntrico broker de Wall...

    Director: Robert Schroer

    Género: Comedia

    Actores: Wass Stevens

  • Te Amo Brother (2009) REMUX 1080p Latino

    Te Amo Brother (2009) REMUX 1080p Latino

    2009
    Te Amo Brother (2009) REMUX 1080p Latino

    1h 45m 2009

    Descargar Te Amo Brother (2009) REMUX 1080p Latino. Peter Klaven (Paul Rudd) es un joven que vive muy...

    Director: Scott Robertson

    Género: Comedia

    Actores: Vicki Davis

descargar Y dónde está el fantasma 2 (2014) REMUX 1080p Latino – CMHDD Full 1080p 1080p gratis, Y dónde está el fantasma 2 (2014) REMUX 1080p Latino – CMHDD Full 1080p mega 1 link, Y dónde está el fantasma 2 (2014) REMUX 1080p Latino – CMHDD Full 1080p pelicula completa, descargar Y dónde está el fantasma 2 (2014) REMUX 1080p Latino – CMHDD Full 1080p gratis en mega.

Y dónde está el fantasma 2 (2014) REMUX 1080p Latino – CMHDD pelicula full hd, Y dónde está el fantasma 2 (2014) REMUX 1080p Latino – CMHDD mega latino, Y dónde está el fantasma 2 (2014) REMUX 1080p Latino – CMHDD 4k latino, Y dónde está el fantasma 2 (2014) REMUX 1080p Latino – CMHDD pelicula completa, Y dónde está el fantasma 2 (2014) REMUX 1080p Latino – CMHDD descargar gratis, descargar Y dónde está el fantasma 2 (2014) REMUX 1080p Latino – CMHDD pelicula latino, Y dónde está el fantasma 2 (2014) REMUX 1080p Latino – CMHDD 1 link mega, Y dónde está el fantasma 2 (2014) REMUX 1080p Latino – CMHDD 1 link google drive, Y dónde está el fantasma 2 (2014) REMUX 1080p Latino – CMHDD hd 1080p latino.
Comentarios 0