×

¿Problemas para descargar con Mozilla, EDGE? Deshabilita la opción "Abrir vinculos en una pestaña nueva" tal como lo muestra ésta imagen.

¿Y cómo es él? (2022) AMZN Web-DL 1080p Latino

473 vistas

Información de ¿Y cómo es él? (2022) AMZN Web-DL 1080p Latino

Datos de la película

  • Calidad: WEBDL
  • Audio: Español Latino AC3 5.1
  • Subtitulos: Español Latino SRT
  • Resolución: 1920x1080p
  • Formato: MKV
  • Codec: H.264
  • Encoder: Melkor
  • Mediainfo: Clic para Mostrar Datos Ver
  • Y Como Es El (2022) AMZN WebDL 1080p Latino.mkv
    Format                      : Matroska
    Format version              : Version 4
    File size                   : 6.84 GiB
    Duration                    : 1 h 35 min
    Overall bit rate            : 10.2 Mb/s
    Movie name                  : ¿Y Como Es El? (2022) CinemaniaHDD.Net
    Encoded date                : UTC 2022-07-02 03:32:53
    Writing application         : mkvmerge v56.1.0 ('My Friend') 64-bit
    Writing library             : libebml v1.4.2 + libmatroska v1.6.4
    Attachments                 : CINEMANIAHD.png

    Video
    ID                          : 1
    Format                      : AVC
    Format/Info                 : Advanced Video Codec
    Format profile              : High@L4
    Format settings             : CABAC / 4 Ref Frames
    Format settings, CABAC      : Yes
    Format settings, Reference  : 4 frames
    Codec ID                    : V_MPEG4/ISO/AVC
    Duration                    : 1 h 35 min
    Bit rate mode               : Constant
    Bit rate                    : 8 945 kb/s
    Nominal bit rate            : 10 000 kb/s
    Width                       : 1 920 pixels
    Height                      : 1 080 pixels
    Display aspect ratio        : 16:9
    Frame rate mode             : Constant
    Frame rate                  : 23.976 (24000/1001) FPS
    Color space                 : YUV
    Chroma subsampling          : 4:2:0
    Bit depth                   : 8 bits
    Scan type                   : Progressive
    Bits/(Pixel*Frame)          : 0.180
    Stream size                 : 5.98 GiB (87%)
    Title                       : Web HD1080p [CinemaniaHDD]
    Default                     : Yes
    Forced                      : Yes
    Color range                 : Limited
    Color primaries             : BT.709
    Transfer characteristics    : BT.709
    Matrix coefficients         : BT.709

    Audio #1
    ID                          : 2
    Format                      : AC-3
    Format/Info                 : Audio Coding 3
    Commercial name             : Dolby Digital
    Codec ID                    : A_AC3
    Duration                    : 1 h 35 min
    Bit rate mode               : Constant
    Bit rate                    : 640 kb/s
    Channel(s)                  : 6 channels
    Channel layout              : L R C LFE Ls Rs
    Sampling rate               : 48.0 kHz
    Frame rate                  : 31.250 FPS (1536 SPF)
    Compression mode            : Lossy
    Stream size                 : 438 MiB (6%)
    Title                       : Español Latino AC3 [CinemaniaHDD]
    Language                    : Spanish
    Service kind                : Complete Main
    Default                     : Yes
    Forced                      : Yes

    Audio #2
    ID                          : 3
    Format                      : E-AC-3
    Format/Info                 : Enhanced AC-3
    Commercial name             : Dolby Digital Plus
    Codec ID                    : A_EAC3
    Duration                    : 1 h 35 min
    Bit rate mode               : Constant
    Bit rate                    : 640 kb/s
    Channel(s)                  : 6 channels
    Channel layout              : L R C LFE Ls Rs
    Sampling rate               : 48.0 kHz
    Frame rate                  : 31.250 FPS (1536 SPF)
    Compression mode            : Lossy
    Stream size                 : 438 MiB (6%)
    Title                       : Español Latino [CinemaniaHDD]
    Language                    : Spanish
    Service kind                : Complete Main
    Default                     : No
    Forced                      : No

    Text
    ID                          : 4
    Format                      : UTF-8
    Codec ID                    : S_TEXT/UTF8
    Codec ID/Info               : UTF-8 Plain Text
    Duration                    : 1 h 34 min
    Bit rate                    : 77 b/s
    Count of elements           : 1811
    Stream size                 : 53.7 KiB (0%)
    Title                       : Español-SRT [CinemaniaHDD]
    Language                    : Spanish
    Default                     : No
    Forced                      : No

  • Peso: 6.84 GiB

Sinopsis

Descargar ¿Y cómo es él? (2022) AMZN Web-DL 1080p Latino. Thomas es un hombre manso al borde de un ataque de nervios. A pesar de su situación decide fingir un viaje de trabajo para ir a Vallarta a enfrentarse a Jero, un taxista que se acuesta con su mujer.

Ficha técnica

  • Titulo original: ¿Y cómo es él?
  • Fecha de lanzamiento: 07-04-2022 (Mexico, United States of America)
  • Director: Ariel Winograd
  • Género: Comedia

Video trailer de la película

Enlaces de descarga

Rip de Bluray

Descargar ¿Y cómo es él? (2022) AMZN Web-DL 1080p Latino




Aportes de DPeliculasHDmega la pass es:dpeliculashdmega.org Aportes de CinemaniaHD la pass es:cinemaniahdd.com
Guardado en : Comedia

Películas relacionadas

  • Abuelos Principiantes (2020) HD 1080p Latino

    Abuelos Principiantes (2020) HD 1080p Latino

    2020
    Abuelos Principiantes (2020) HD 1080p Latino

    1h 44m 2020

    Descargar Abuelos Principiantes (2020) HD 1080p Latino. Un grupo de jubilados quiere escapar del aburrimiento...

    Director: Wolfgang Groos

    Género: Comedia

    Actores: Sabine Barth

  • Abuelos Principiantes (2020) REMUX 1080p Latino

    Abuelos Principiantes (2020) REMUX 1080p Latino

    2020
    Abuelos Principiantes (2020) REMUX 1080p Latino

    1h 44m 2020

    Descargar Abuelos Principiantes (2020) REMUX 1080p Latino. Un grupo de jubilados quiere escapar del aburrimiento...

    Director: Wolfgang Groos

    Género: Comedia

    Actores: Sabine Barth

¿Y cómo es él? (2022) AMZN Web-DL 1080p Latino pelicula full hd, ¿Y cómo es él? (2022) AMZN Web-DL 1080p Latino mega latino, ¿Y cómo es él? (2022) AMZN Web-DL 1080p Latino 4k latino, ¿Y cómo es él? (2022) AMZN Web-DL 1080p Latino pelicula completa, ¿Y cómo es él? (2022) AMZN Web-DL 1080p Latino descargar gratis, descargar ¿Y cómo es él? (2022) AMZN Web-DL 1080p Latino pelicula latino, ¿Y cómo es él? (2022) AMZN Web-DL 1080p Latino 1 link mega, ¿Y cómo es él? (2022) AMZN Web-DL 1080p Latino 1 link google drive, ¿Y cómo es él? (2022) AMZN Web-DL 1080p Latino hd 1080p latino.
Comentarios 0