xXx Reactivado (2017) 3D OU Full 1080p Latino

1.748 vistas
1 estrella2 estrellas3 estrellas4 estrellas5 estrellas (Ninguna valoración todavía)
Cargando…

Información de xXx Reactivado (2017) 3D OU Full 1080p Latino

Datos de la película

  • Calidad: Full 1080p
  • Audio: Español Latino AC3 5.1 BLURAY - Ingles DTS 5.1 BLURAY
  • Subtitulos: Español Latino PGS - Ingles PGS
  • Resolución: 1920x1080p
  • Formato: MKV
  • Codec: H.264
  • Encoder: Dpelis
  • Mediainfo: Clic para Mostrar Datos Ver
  • xXx.Return.of.Xander.Cage.2017.3D.OU.FULL.1080p.Latino.Dpelis.mkv
    Format                      : Matroska
    Format version              : Version 4 / Version 2
    File size                   : 13.9 GiB
    Duration                    : 1 h 46 min
    Overall bit rate mode       : Variable
    Overall bit rate            : 18.6 Mb/s
    Movie name                  : DPeliculasHDMega.ORG
    Encoded date                : UTC 2017-05-23 23:14:46
    Writing application         : mkvmerge v10.0.0 ('To Drown In You') 64bit
    Writing library             : libebml v1.3.4 + libmatroska v1.4.5

    Video
    ID                          : 1
    Format                      : AVC
    Format/Info                 : Advanced Video Codec
    Format profile              : [email protected]
    Format settings, CABAC      : Yes
    Format settings, ReFrames   : 2 frames
    Codec ID                    : V_MPEG4/ISO/AVC
    Duration                    : 1 h 46 min
    Bit rate                    : 12.2 Mb/s
    Width                       : 1 920 pixels
    Height                      : 1 080 pixels
    Display aspect ratio        : 16:9
    Frame rate mode             : Constant
    Frame rate                  : 23.976 (24000/1001) FPS
    Color space                 : YUV
    Chroma subsampling          : 4:2:0
    Bit depth                   : 8 bits
    Scan type                   : Progressive
    Bits/(Pixel*Frame)          : 0.245
    Stream size                 : 9.08 GiB (65%)
    Writing library             : x264 core 142
    Encoding settings           : cabac=1 / ref=1 / deblock=1:-1:-1 / analyse=0x3:0 / me=hex / subme=5 / psy=0 / mixed_ref=0 / me_range=16 / chroma_me=1 / trellis=0 / 8x8dct=1 / cqm=0 / deadzone=21,11 / fast_pskip=0 / chroma_qp_offset=0 / threads=8 / lookahead_threads=2 / sliced_threads=0 / nr=0 / decimate=1 / interlaced=0 / bluray_compat=0 / constrained_intra=0 / bframes=2 / b_pyramid=0 / b_adapt=1 / b_bias=0 / direct=1 / weightb=0 / open_gop=0 / weightp=0 / keyint=24 / keyint_min=13 / scenecut=40 / intra_refresh=0 / rc=crf / mbtree=0 / crf=20.0 / qcomp=0.60 / qpmin=0 / qpmax=69 / qpstep=4 / ip_ratio=1.40 / pb_ratio=1.30 / aq=1:1.00
    Default                     : Yes
    Forced                      : No
    Color range                 : Limited
    Color primaries             : BT.709
    Transfer characteristics    : BT.709
    Matrix coefficients         : BT.709

    Audio #1
    ID                          : 2
    Format                      : AC-3
    Format/Info                 : Audio Coding 3
    Format settings, Endianness : Big
    Codec ID                    : A_AC3
    Duration                    : 1 h 46 min
    Bit rate mode               : Constant
    Bit rate                    : 640 kb/s
    Channel(s)                  : 6 channels
    Channel positions           : Front: L C R, Side: L R, LFE
    Sampling rate               : 48.0 kHz
    Frame rate                  : 31.250 FPS (1536 spf)
    Bit depth                   : 16 bits
    Compression mode            : Lossy
    Stream size                 : 489 MiB (3%)
    Language                    : Spanish
    Service kind                : Complete Main
    Default                     : Yes
    Forced                      : No

    Audio #2
    ID                          : 3
    Format                      : TrueHD
    Format profile              : TrueHD+Atmos / TrueHD
    Codec ID                    : A_TRUEHD
    Duration                    : 1 h 46 min
    Bit rate mode               : Variable
    Bit rate                    : 5 702 kb/s
    Maximum bit rate            : 8 961 kb/s
    Channel(s)                  : Object Based / 8 channels
    Channel positions           : Object Based / Front: L C R, Side: L R, Back: L R, LFE
    Sampling rate               :  / 48.0 kHz
    Frame rate                  : 1 200.000 FPS (40 spf)
    Compression mode            : Lossless
    Stream size                 : 4.25 GiB (31%)
    Language                    : English
    Default                     : No
    Forced                      : No

    Text #1
    ID                          : 4
    Format                      : PGS
    Muxing mode                 : zlib
    Codec ID                    : S_HDMV/PGS
    Codec ID/Info               : Picture based subtitle format used on BDs/HD-DVDs
    Duration                    : 1 h 36 min
    Bit rate                    : 7 634 b/s
    Count of elements           : 1994
    Stream size                 : 5.26 MiB (0%)
    Language                    : Spanish
    Default                     : No
    Forced                      : No

    Text #2
    ID                          : 5
    Format                      : PGS
    Muxing mode                 : zlib
    Codec ID                    : S_HDMV/PGS
    Codec ID/Info               : Picture based subtitle format used on BDs/HD-DVDs
    Duration                    : 1 h 36 min
    Bit rate                    : 7 721 b/s
    Count of elements           : 2262
    Stream size                 : 5.31 MiB (0%)
    Language                    : English
    Default                     : No
    Forced                      : No

    Text #3
    ID                          : 6
    Format                      : UTF-8
    Codec ID                    : S_TEXT/UTF8
    Codec ID/Info               : UTF-8 Plain Text
    Duration                    : 10 s 100 ms
    Bit rate                    : 91 b/s
    Count of elements           : 1
    Stream size                 : 115 Bytes (0%)
    Language                    : Spanish
    Default                     : Yes
    Forced                      : No

    Menu
    00:00:00.000                : en:(01)00:00:00:000
    00:07:09.137                : en:(02)00:07:09:137
    00:12:00.511                : en:(03)00:12:00:511
    00:22:38.106                : en:(04)00:22:38:106
    00:27:56.257                : en:(05)00:27:56:257
    00:38:27.763                : en:(06)00:38:27:763
    00:46:59.650                : en:(07)00:46:59:650
    00:52:45.620                : en:(08)00:52:45:620
    01:02:10.059                : en:(09)01:02:10:059
    01:11:50.180                : en:(10)01:11:50:180
    01:18:35.252                : en:(11)01:18:35:252
    01:28:42.734                : en:(12)01:28:42:734
    01:37:57.162                : en:(13)01:37:57:162
    01:46:46.024                : en:(14)01:46:46:024

  • Peso: 13.9 GB

Sinopsis

Descargar xXx Reactivado 3D Half Ou Full 1080p Latino 5.1 Cuando un grupo de mercenarios para robar el arma de alta tecnología representa una amenaza global, el mundo necesita SuperSpy Xander Cage (Diesel). Reclutado de nuevo, Xander dirige un equipo de defensa de los adictos a la adrenalina de la muerte en una búsqueda para salvar el mundo.

Ficha técnica

Video trailer de la película

Enlaces de descarga

Rip de Bluray

Descargar xXx Reactivado (2017) 3D OU Full 1080p Latino




Aportes de DPeliculasHDmega la pass es:dpeliculashdmega.org Aportes de CinemaniaHD la pass es:cinemaniahdd.com
Guardado en : 3D Half OU , Acción , Aventura , Crimen

Películas relacionadas

  • The Dead Lands (2014) 1080p Latino

    2014
    The Dead Lands (2014) 1080p Latino

    0.0 1h 47m 2014

    Tras presenciar cómo su familia es masacrada, Hongi, adolescente hijo de jefe tribal, acudirá a la...

    Director: Toa Fraser

    Género: Acción

    Actores: Xavier Horan

  • Terremoto (2018) Full 1080p Subtitulado

    2018
    Terremoto (2018) Full 1080p Subtitulado

    3.7 1h 46m 2018

    En 1904, un terremoto de magnitud 5,4 sacudió Oslo con el epicentro en “Oslo Graben” bajo la capital...

    Director: John Andreas Andersen

    Género: Aventura

    Actores: Tina Schei

  • Bumblebee (2018) 1080p Latino

    2018
    Bumblebee (2018) 1080p Latino

    5.0 1h 54m 2018

    Sexta entrega de la saga 'Transformers', esta vez centrada en el "hermano pequeño" de los Autobots,...

    Director: Travis Knight

    Género: Acción

    Actores: Yianni Apostolopolous

Comentarios 4
  • C Calva - 24 mayo, 2017

    HOla:

    Las últimas películas en 3D al hacer click en los enlaces de descarga de mega o UPTOBOX (adfly) me dice que no existe la página y envía:
    “Asegúrate de que tienes la dirección web correcta: “.

    Alguna sugerencia para corregir esto?.

    GRACIAS y espero su oportuna Respuesta

    • dpelis - 24 mayo, 2017

      desactivar el bloqueador de anuncios (adblock) por eso le da error

      • MIN - 03 junio, 2017

        SIGUE SIN FUNCIONAR AUNQUE ESTE DESACTIVADO EL ADBLOCK Y SIGUIENDO TODOS LOS PASOS SIGUE APARECIENDO EL LOGO DE MEGA Y NINGUNA DESCARGA