×

¿Problemas para descargar con Mozilla, EDGE? Deshabilita la opción "Abrir vinculos en una pestaña nueva" tal como lo muestra ésta imagen.

xXx (2002) [Anniversary Edition] REMUX 1080p Latino – CMHDD

147 vistas

Información de xXx (2002) [Anniversary Edition] REMUX 1080p Latino – CMHDD

Datos de la película

  • Calidad: Full 1080p
  • Audio: Español Latino AC3 5.1 BLURAY - Ingles DTS 5.1 BLURAY
  • Subtitulos: Español Latino PGS
  • Resolución: 19201080p
  • Formato: MKV
  • Codec: H.264
  • Encoder: Dracarys
  • Mediainfo: Clic para Mostrar Datos Ver
  • Format                      : Matroska
    Format version              : Version 4
    File size                   : 25.8 GiB
    Duration                    : 2 h 4 min
    Overall bit rate mode       : Variable
    Overall bit rate            : 29.8 Mb/s
    Movie name                  : xXx (2002) [Anniversary Edition] REMUX 1080p Latino - CMHDD
    Encoded date                : UTC 2023-09-21 20:33:27
    Writing application         : mkvmerge v47.0.0 ('Black Flag') 64-bit
    Writing library             : libebml v1.3.10 + libmatroska v1.5.2
    Cover                       : Yes
    Attachments                 : cover.jpg

    Video
    ID                          : 1
    ID in the original source m : 4113 (0x1011)
    Format                      : AVC
    Format/Info                 : Advanced Video Codec
    Format profile              : High@L4.1
    Format settings             : CABAC / 2 Ref Frames
    Format settings, CABAC      : Yes
    Format settings, Reference  : 2 frames
    Codec ID                    : V_MPEG4/ISO/AVC
    Duration                    : 2 h 4 min
    Bit rate mode               : Variable
    Bit rate                    : 24.9 Mb/s
    Width                       : 1 920 pixels
    Height                      : 1 080 pixels
    Display aspect ratio        : 16:9
    Frame rate mode             : Constant
    Frame rate                  : 23.976 (24000/1001) FPS
    Color space                 : YUV
    Chroma subsampling          : 4:2:0
    Bit depth                   : 8 bits
    Scan type                   : Progressive
    Bits/(Pixel*Frame)          : 0.502
    Stream size                 : 21.6 GiB (84%)
    Default                     : Yes
    Forced                      : No
    Original source medium      : Blu-ray

    Audio #1
    ID                          : 2
    ID in the original source m : 4352 (0x1100)
    Format                      : DTS XLL
    Format/Info                 : Digital Theater Systems
    Commercial name             : DTS-HD Master Audio
    Codec ID                    : A_DTS
    Duration                    : 2 h 4 min
    Bit rate mode               : Variable
    Bit rate                    : 4 200 kb/s
    Channel(s)                  : 6 channels
    Channel layout              : C L R Ls Rs LFE
    Sampling rate               : 48.0 kHz
    Frame rate                  : 93.750 FPS (512 SPF)
    Bit depth                   : 24 bits
    Compression mode            : Lossless
    Stream size                 : 3.64 GiB (14%)
    Language                    : English
    Default                     : No
    Forced                      : No
    Original source medium      : Blu-ray

    Audio #2
    ID                          : 3
    ID in the original source m : 4361 (0x1109)
    Format                      : AC-3
    Format/Info                 : Audio Coding 3
    Commercial name             : Dolby Digital
    Codec ID                    : A_AC3
    Duration                    : 2 h 4 min
    Bit rate mode               : Constant
    Bit rate                    : 640 kb/s
    Channel(s)                  : 6 channels
    Channel layout              : L R C LFE Ls Rs
    Sampling rate               : 48.0 kHz
    Frame rate                  : 31.250 FPS (1536 SPF)
    Compression mode            : Lossy
    Delay relative to video     : 18 ms
    Stream size                 : 568 MiB (2%)
    Language                    : Spanish
    Service kind                : Complete Main
    Default                     : Yes
    Forced                      : No
    Original source medium      : Blu-ray

    Text
    ID                          : 4
    ID in the original source m : 4632 (0x1218)
    Format                      : PGS
    Muxing mode                 : zlib
    Codec ID                    : S_HDMV/PGS
    Codec ID/Info               : Picture based subtitle format used on BDs/HD-DVDs
    Duration                    : 1 h 52 min
    Bit rate                    : 23.2 kb/s
    Frame rate                  : 0.256 FPS
    Count of elements           : 1723
    Stream size                 : 18.6 MiB (0%)
    Language                    : Spanish
    Default                     : No
    Forced                      : No
    Original source medium      : Blu-ray

    Menu
    00:00:00.000                : en:Capítulo 01
    00:05:40.590                : en:Capítulo 02
    00:12:29.457                : en:Capítulo 03
    00:23:59.438                : en:Capítulo 04
    00:32:27.820                : en:Capítulo 05
    00:42:18.869                : en:Capítulo 06
    00:50:25.689                : en:Capítulo 07
    00:57:10.427                : en:Capítulo 08
    01:04:33.870                : en:Capítulo 09
    01:12:01.400                : en:Capítulo 10
    01:20:59.563                : en:Capítulo 11
    01:26:36.274                : en:Capítulo 12
    01:32:44.600                : en:Capítulo 13
    01:39:01.268                : en:Capítulo 14
    01:45:57.059                : en:Capítulo 15
    01:49:40.824                : en:Capítulo 16

     

  • Peso: 25.8 GiB

Sinopsis

Xander Cage es XXX, un antiguo ganador de X-Games y atleta profesional de deportes de extremo, que sobrevive vendiendo videos de sus increíbles hazañas, las cuales hacen emitir adrenalina por todo el cuerpo. Pero después de incontables encuentros con la ley, su mundo está a punto de tomar un rumbo aún más extremo… Porque Xander no sabe que ha sido «espiado» por Augustus Gibbons, un agente veterano de la Agencia Nacional de Seguridad que se encuentra en una desesperada situación en la distante ciudad de Praga, en donde su operativo secreto ha sido asesinado por una pandilla de mafiosos con un estilo muy propio, que se llaman así mismos Anarchy 99, encabezados por el brutal ex-Comandante del Ejército Ruso Yorgi.

Ficha técnica

Video trailer de la película

Enlaces de descarga

Rip de Bluray

Descargar xXx (2002) [Anniversary Edition] REMUX 1080p Latino – CMHDD


Aportes de DPeliculasHDmega la pass es:dpeliculashdmega.org Aportes de CinemaniaHD la pass es:cinemaniahdd.com Aportes recientes:cinemaniahdd.net
Guardado en : Acción , Aventura , Suspenso

Películas relacionadas

  • Dune: Parte dos (2024) WEB-DL 4K UHD HDR Latino

    Dune: Parte dos (2024) WEB-DL 4K UHD HDR Latino

    2024
    Dune: Parte dos (2024) WEB-DL 4K UHD HDR Latino

    2h 47m 2024

    Descargar Dune: Parte dos (2024) WEB-DL 4K UHD HDR Latino. Sigue el viaje mítico de Paul Atreides mientras...

    Director: Vera Janisch

    Género: 4K HDR

    Actores: Zouhair Elakkari

  • Dune: Parte dos (2024) AMZN WEB-DL 1080p Latino

    Dune: Parte dos (2024) AMZN WEB-DL 1080p Latino

    2024
    Dune: Parte dos (2024) AMZN WEB-DL 1080p Latino

    2h 47m 2024

    Descargar Dune: Parte dos (2024) AMZN WEB-DL 1080p Latino. Sigue el viaje mítico de Paul Atreides mientras...

    Director: Vera Janisch

    Género: Aventura

    Actores: Zouhair Elakkari

  • Godzilla vs. Kong (2021) REMUX 4K HDR Latino – CMHDD

    Godzilla vs. Kong (2021) REMUX 4K HDR Latino – CMHDD

    2021
    Godzilla vs. Kong (2021) REMUX 4K HDR Latino – CMHDD

    1h 54m 2021

    Godzilla y Kong, dos de las fuerzas más poderosas de un planeta habitado por todo tipo de aterradoras...

    Director: Thomas Robinson Harper

    Género: Acción

    Actores: Victoria Liu

  • Bumblebee (2018) REMUX 4K HDR Latino – CMHDD

    Bumblebee (2018) REMUX 4K HDR Latino – CMHDD

    2018
    Bumblebee (2018) REMUX 4K HDR Latino – CMHDD

    1h 54m 2018

    Sexta entrega de la saga 'Transformers', esta vez centrada en el "hermano pequeño" de los Autobots,...

    Director: Trisha Burton

    Género: Acción

    Actores: William W. Barbour

descargar xXx (2002) [Anniversary Edition] REMUX 1080p Latino – CMHDD Full 1080p 1080p gratis, xXx (2002) [Anniversary Edition] REMUX 1080p Latino – CMHDD Full 1080p mega 1 link, xXx (2002) [Anniversary Edition] REMUX 1080p Latino – CMHDD Full 1080p pelicula completa, descargar xXx (2002) [Anniversary Edition] REMUX 1080p Latino – CMHDD Full 1080p gratis en mega.

xXx (2002) [Anniversary Edition] REMUX 1080p Latino – CMHDD pelicula full hd, xXx (2002) [Anniversary Edition] REMUX 1080p Latino – CMHDD mega latino, xXx (2002) [Anniversary Edition] REMUX 1080p Latino – CMHDD 4k latino, xXx (2002) [Anniversary Edition] REMUX 1080p Latino – CMHDD pelicula completa, xXx (2002) [Anniversary Edition] REMUX 1080p Latino – CMHDD descargar gratis, descargar xXx (2002) [Anniversary Edition] REMUX 1080p Latino – CMHDD pelicula latino, xXx (2002) [Anniversary Edition] REMUX 1080p Latino – CMHDD 1 link mega, xXx (2002) [Anniversary Edition] REMUX 1080p Latino – CMHDD 1 link google drive, xXx (2002) [Anniversary Edition] REMUX 1080p Latino – CMHDD hd 1080p latino.
Comentarios 0