×

¿Problemas para descargar con Mozilla, EDGE? Deshabilita la opción "Abrir vinculos en una pestaña nueva" tal como lo muestra ésta imagen.

X-Men: Origenes Wolverine (2009) REMUX 1080p Latino

308 vistas

Información de X-Men: Origenes Wolverine (2009) REMUX 1080p Latino

Datos de la película

  • Calidad: Full 1080p
  • Audio: Español Latino DTS 5.1 BLURAY - Ingles DTS-HD 5.1 BLURAY
  • Subtitulos: Español Latino PGS - Ingles PGS
  • Resolución: 1920x1080p
  • Formato: MKV
  • Codec: H.264
  • Encoder: CinefiloCool
  • Mediainfo: Clic para Mostrar Datos Ver
  • X-Men Origenes Wolverine (2009) REMUX 1080p Latino-CMHDD.mkv
    Format                      : Matroska
    Format version              : Version 4
    File size                   : 29.7 GiB
    Duration                    : 1 h 47 min
    Overall bit rate mode       : Variable
    Overall bit rate            : 39.6 Mb/s
    Movie name                  : X-Men. Origins Wolverine (2009) CinemaniaHDD.Net
    Encoded date                : UTC 2023-03-04 11:02:46
    Writing application         : mkvmerge v56.1.0 ('My Friend') 64-bit
    Writing library             : libebml v1.4.2 + libmatroska v1.6.4
    Attachments                 : CINEMANIAHD.png

    Video
    ID                          : 1
    Format                      : AVC
    Format/Info                 : Advanced Video Codec
    Format profile              : High@L4.1
    Format settings             : CABAC / 4 Ref Frames
    Format settings, CABAC      : Yes
    Format settings, Reference  : 4 frames
    Codec ID                    : V_MPEG4/ISO/AVC
    Duration                    : 1 h 47 min
    Bit rate mode               : Variable
    Bit rate                    : 34.9 Mb/s
    Maximum bit rate            : 36.9 Mb/s
    Width                       : 1 920 pixels
    Height                      : 1 080 pixels
    Display aspect ratio        : 16:9
    Frame rate mode             : Constant
    Frame rate                  : 23.976 (24000/1001) FPS
    Color space                 : YUV
    Chroma subsampling          : 4:2:0
    Bit depth                   : 8 bits
    Scan type                   : Progressive
    Bits/(Pixel*Frame)          : 0.703
    Stream size                 : 26.2 GiB (88%)
    Title                       : REMUX HD1080p [CinemaniaHDD]
    Language                    : English
    Default                     : Yes
    Forced                      : Yes
    Color range                 : Limited
    Color primaries             : BT.709
    Transfer characteristics    : BT.709
    Matrix coefficients         : BT.709

    Audio #1
    ID                          : 2
    Format                      : DTS
    Format/Info                 : Digital Theater Systems
    Codec ID                    : A_DTS
    Duration                    : 1 h 47 min
    Bit rate mode               : Constant
    Bit rate                    : 768 kb/s
    Channel(s)                  : 6 channels
    Channel layout              : C L R Ls Rs LFE
    Sampling rate               : 48.0 kHz
    Frame rate                  : 93.750 FPS (512 SPF)
    Bit depth                   : 16 bits
    Compression mode            : Lossy
    Stream size                 : 590 MiB (2%)
    Title                       : Español Latino [CinemaniaHDD]
    Language                    : Spanish
    Default                     : Yes
    Forced                      : Yes

    Audio #2
    ID                          : 3
    Format                      : DTS XLL
    Format/Info                 : Digital Theater Systems
    Commercial name             : DTS-HD Master Audio
    Codec ID                    : A_DTS
    Duration                    : 1 h 47 min
    Bit rate mode               : Variable
    Bit rate                    : 3 880 kb/s
    Channel(s)                  : 6 channels
    Channel layout              : C L R Ls Rs LFE
    Sampling rate               : 48.0 kHz
    Frame rate                  : 93.750 FPS (512 SPF)
    Bit depth                   : 24 bits
    Compression mode            : Lossless
    Stream size                 : 2.91 GiB (10%)
    Title                       : Ingles [CinemaniaHDD]
    Language                    : English
    Default                     : No
    Forced                      : No

    Text #1
    ID                          : 4
    Format                      : PGS
    Muxing mode                 : zlib
    Codec ID                    : S_HDMV/PGS
    Codec ID/Info               : Picture based subtitle format used on BDs/HD-DVDs
    Duration                    : 17 min 11 s
    Bit rate                    : 510 b/s
    Count of elements           : 6
    Stream size                 : 64.3 KiB (0%)
    Title                       : Forzados-PGS [CinemaniaHDD]
    Language                    : Spanish
    Default                     : No
    Forced                      : No

    Text #2
    ID                          : 5
    Format                      : PGS
    Muxing mode                 : zlib
    Codec ID                    : S_HDMV/PGS
    Codec ID/Info               : Picture based subtitle format used on BDs/HD-DVDs
    Duration                    : 1 h 46 min
    Bit rate                    : 22.5 kb/s
    Count of elements           : 1710
    Stream size                 : 17.1 MiB (0%)
    Title                       : Español-PGS [CinemaniaHDD]
    Language                    : Spanish
    Default                     : No
    Forced                      : No

    Text #3
    ID                          : 6
    Format                      : PGS
    Muxing mode                 : zlib
    Codec ID                    : S_HDMV/PGS
    Codec ID/Info               : Picture based subtitle format used on BDs/HD-DVDs
    Duration                    : 1 h 40 min
    Bit rate                    : 23.6 kb/s
    Count of elements           : 1684
    Stream size                 : 17.0 MiB (0%)
    Title                       : Ingles [CinemaniaHDD]
    Language                    : English
    Default                     : No
    Forced                      : No

    Text #4
    ID                          : 7
    Format                      : UTF-8
    Codec ID                    : S_TEXT/UTF8
    Codec ID/Info               : UTF-8 Plain Text
    Duration                    : 1 h 28 min
    Bit rate                    : 0 b/s
    Count of elements           : 10
    Stream size                 : 277 Bytes (0%)
    Title                       : Forzados-SRT [CinemaniaHDD]
    Language                    : Spanish
    Default                     : Yes
    Forced                      : Yes

    Text #5
    ID                          : 8
    Format                      : UTF-8
    Codec ID                    : S_TEXT/UTF8
    Codec ID/Info               : UTF-8 Plain Text
    Duration                    : 1 h 46 min
    Bit rate                    : 36 b/s
    Count of elements           : 856
    Stream size                 : 28.5 KiB (0%)
    Title                       : Español-SRT [CinemaniaHDD]
    Language                    : Spanish
    Default                     : No
    Forced                      : No

    Menu
    00:00:00.000                : :My Son
    00:03:21.201                : :Main Titles/Invincible Warriors
    00:07:49.010                : :Recruitment
    00:10:28.419                : :Special Team
    00:14:09.807                : :Enough!
    00:17:50.110                : :New Life
    00:19:31.503                : :Show's Over
    00:25:55.136                : :Powers of Persuasion
    00:28:17.987                : :The Moon and Her Lover
    00:32:28.571                : :Out For Blood
    00:37:51.310                : :Weapon X
    00:45:03.367                : :Kindness to Strangers
    00:49:43.647                : :Blow Him to Bits
    00:56:28.468                : :Our Own Kind
    00:59:41.828                : :Boxing With the Blob
    01:02:17.650                : :Mutant Capture
    01:06:12.176                : :Gambit
    01:09:54.523                : :Confronting Victor
    01:12:54.703                : :Preemptive Action
    01:16:19.741                : :Played for a Fool
    01:21:29.467                : :Animal Rage
    01:25:57.777                : :Weapon XI
    01:28:55.121                : :Common Enemy
    01:32:06.812                : :Always Brothers
    01:33:37.069                : :Point Blank
    01:37:15.538                : :What's My Name?
    01:40:22.141                : :End Titles/Under Arrest
    01:41:26.121                : :End Titles/Back From the Dead

  • Peso: 29.7 GiB

Sinopsis

Descargar X-Men: Origenes Wolverine (2009) REMUX 1080p Latino. Precuela de la película X-Men. Situada 17 años antes, narra los inicios del arma X y la forma en la que Wolverine se convirtió en mutante. Logan, convertido en un mutante que se hace llamar Wolverine, y que es capaz de sacar unas afiladas garras y de una fuerza y agilidad sobrehumana, ultima su venganza contra Victor Creed, culpable de la muerte de su novia. Mientras tanto, otros mutantes se acogen al programa X para unir sus fuerzas.

Nota:
Acerca de esta pelicula y segun la investigacion hecha, se realizaron 2 versiones al parecer con unica diferencia de la escena final postcreditos, en una deadpool de Ryan Reynolds hace incapie en que su personaje estaba vivo, en la otra se nos presenta a Wolverine en un bar japones… es esta ultima la presentada en este aporte ya que me parece mucho mas intersante. 😀 Enjoy!!!

Ficha técnica

Video trailer de la película

Enlaces de descarga

Rip de Bluray

Descargar X-Men: Origenes Wolverine (2009) REMUX 1080p Latino


Aportes de DPeliculasHDmega la pass es:dpeliculashdmega.org Aportes de CinemaniaHD la pass es:cinemaniahdd.com Aportes recientes:cinemaniahdd.net
Etiquetado en :

Películas relacionadas

  • Cómo robar un millón (1966) REMUX 1080p Latino-CMHDD

    Cómo robar un millón (1966) REMUX 1080p Latino-CMHDD

    1966
    Cómo robar un millón (1966) REMUX 1080p Latino-CMHDD

    2h 3m 1966

    Descargar Cómo robar un millón (1966) REMUX 1080p Latino-CMHDD. El padre de Nicole, un legendario coleccionista...

    Director: William Wyler

    Género: Comedia

    Actores: Roger Tréville

  • Milagros Inesperados (1999) REMUX 1080p Latino-CMHDD

    Milagros Inesperados (1999) REMUX 1080p Latino-CMHDD

    1999
    Milagros Inesperados (1999) REMUX 1080p Latino-CMHDD

    3h 9m 1999

    Descargar Milagros Inesperados (1999) REMUX 1080p Latino-CMHDD. En el sur de los Estados Unidos, en plena...

    Director: Susan Malerstein

    Género: Crimen

    Actores: William Sadler

  • Wanted Man (2024) HD 1080p Latino

    Wanted Man (2024) HD 1080p Latino

    2024
    Wanted Man (2024) HD 1080p Latino

    1h 25m 2024

    Descargar Wanted Man (2024) HD 1080p Latino. Sigue a un oficial de policía que debe recuperar a un testigo...

    Director: Kevin Leslie

    Género: Acción

    Actores: Xzavier Estrada

  • Wanted Man (2024) PLACEBO Full HD 1080p Latino

    Wanted Man (2024) PLACEBO Full HD 1080p Latino

    2024
    Wanted Man (2024) PLACEBO Full HD 1080p Latino

    1h 25m 2024

    Descargar Wanted Man (2024) PLACEBO Full HD 1080p Latino. Sigue a un oficial de policía que debe recuperar...

    Director: Kevin Leslie

    Género: Acción

    Actores: Xzavier Estrada

  • Wanted Man (2024) REMUX 1080p Latino

    Wanted Man (2024) REMUX 1080p Latino

    2024
    Wanted Man (2024) REMUX 1080p Latino

    1h 25m 2024

    Descargar Wanted Man (2024) REMUX 1080p Latino. Sigue a un oficial de policía que debe recuperar a un...

    Director: Kevin Leslie

    Género: Acción

    Actores: Xzavier Estrada

descargar X-Men: Origenes Wolverine (2009) REMUX 1080p Latino Full 1080p 1080p gratis, X-Men: Origenes Wolverine (2009) REMUX 1080p Latino Full 1080p mega 1 link, X-Men: Origenes Wolverine (2009) REMUX 1080p Latino Full 1080p pelicula completa, descargar X-Men: Origenes Wolverine (2009) REMUX 1080p Latino Full 1080p gratis en mega.

X-Men: Origenes Wolverine (2009) REMUX 1080p Latino pelicula full hd, X-Men: Origenes Wolverine (2009) REMUX 1080p Latino mega latino, X-Men: Origenes Wolverine (2009) REMUX 1080p Latino 4k latino, X-Men: Origenes Wolverine (2009) REMUX 1080p Latino pelicula completa, X-Men: Origenes Wolverine (2009) REMUX 1080p Latino descargar gratis, descargar X-Men: Origenes Wolverine (2009) REMUX 1080p Latino pelicula latino, X-Men: Origenes Wolverine (2009) REMUX 1080p Latino 1 link mega, X-Men: Origenes Wolverine (2009) REMUX 1080p Latino 1 link google drive, X-Men: Origenes Wolverine (2009) REMUX 1080p Latino hd 1080p latino.
Comentarios 0