×

¿Problemas para descargar con Mozilla, EDGE? Deshabilita la opción "Abrir vinculos en una pestaña nueva" tal como lo muestra ésta imagen.

X-Men: Primera generación (2011) REMUX 1080p Latino

323 vistas

Información de X-Men: Primera generación (2011) REMUX 1080p Latino

Datos de la película

  • Calidad: Full 1080p
  • Audio: Español Latino AC3 5.1 BLURAY - Ingles DTS 5.1 BLURAY
  • Subtitulos: Español PGS - Ingles PGS
  • Resolución: 1920x1080p
  • Formato: MKV
  • Codec: H.264
  • Encoder: CinefiloCool
  • Mediainfo: Clic para Mostrar Datos Ver
  • X-Men Primera Generacion (2011) REMUX 1080p Latino-CMHDD.mkv
    Format                      : Matroska
    Format version              : Version 4
    File size                   : 25.4 GiB
    Duration                    : 2 h 11 min
    Overall bit rate mode       : Variable
    Overall bit rate            : 27.7 Mb/s
    Movie name                  : X-Men. First Class (2011) CinemaniaHDD.Net
    Encoded date                : UTC 2023-03-04 08:54:12
    Writing application         : mkvmerge v56.1.0 ('My Friend') 64-bit
    Writing library             : libebml v1.4.2 + libmatroska v1.6.4
    Attachments                 : CINEMANIAHD.png

    Video
    ID                          : 1
    Format                      : AVC
    Format/Info                 : Advanced Video Codec
    Format profile              : High@L4.1
    Format settings             : CABAC / 4 Ref Frames
    Format settings, CABAC      : Yes
    Format settings, Reference  : 4 frames
    Format settings, GOP        : M=1, N=12
    Codec ID                    : V_MPEG4/ISO/AVC
    Duration                    : 2 h 11 min
    Bit rate mode               : Variable
    Bit rate                    : 23.2 Mb/s
    Maximum bit rate            : 36.0 Mb/s
    Width                       : 1 920 pixels
    Height                      : 1 080 pixels
    Display aspect ratio        : 16:9
    Frame rate mode             : Constant
    Frame rate                  : 23.976 (24000/1001) FPS
    Color space                 : YUV
    Chroma subsampling          : 4:2:0
    Bit depth                   : 8 bits
    Scan type                   : Progressive
    Bits/(Pixel*Frame)          : 0.467
    Stream size                 : 21.4 GiB (84%)
    Title                       : REMUX HD1080p [CinemaniaHDD]
    Language                    : English
    Default                     : Yes
    Forced                      : Yes

    Audio #1
    ID                          : 2
    Format                      : AC-3
    Format/Info                 : Audio Coding 3
    Commercial name             : Dolby Digital
    Codec ID                    : A_AC3
    Duration                    : 2 h 11 min
    Bit rate mode               : Constant
    Bit rate                    : 448 kb/s
    Channel(s)                  : 6 channels
    Channel layout              : L R C LFE Ls Rs
    Sampling rate               : 48.0 kHz
    Frame rate                  : 31.250 FPS (1536 SPF)
    Compression mode            : Lossy
    Stream size                 : 422 MiB (2%)
    Title                       : Español Latino [CinemaniaHDD]
    Language                    : Spanish
    Service kind                : Complete Main
    Default                     : Yes
    Forced                      : Yes

    Audio #2
    ID                          : 3
    Format                      : DTS XLL
    Format/Info                 : Digital Theater Systems
    Commercial name             : DTS-HD Master Audio
    Codec ID                    : A_DTS
    Duration                    : 2 h 11 min
    Bit rate mode               : Variable
    Bit rate                    : 3 967 kb/s
    Channel(s)                  : 6 channels
    Channel layout              : C L R Ls Rs LFE
    Sampling rate               : 48.0 kHz
    Frame rate                  : 93.750 FPS (512 SPF)
    Bit depth                   : 24 bits
    Compression mode            : Lossless
    Stream size                 : 3.65 GiB (14%)
    Title                       : Ingles [CinemaniaHDD]
    Language                    : English
    Default                     : No
    Forced                      : No

    Text #1
    ID                          : 4
    Format                      : PGS
    Muxing mode                 : zlib
    Codec ID                    : S_HDMV/PGS
    Codec ID/Info               : Picture based subtitle format used on BDs/HD-DVDs
    Duration                    : 2 h 7 min
    Bit rate                    : 2 691 b/s
    Count of elements           : 302
    Stream size                 : 2.45 MiB (0%)
    Title                       : Forzados-PGS [CinemaniaHDD]
    Language                    : Spanish
    Default                     : No
    Forced                      : No

    Text #2
    ID                          : 5
    Format                      : PGS
    Muxing mode                 : zlib
    Codec ID                    : S_HDMV/PGS
    Codec ID/Info               : Picture based subtitle format used on BDs/HD-DVDs
    Duration                    : 2 h 10 min
    Bit rate                    : 29.9 kb/s
    Count of elements           : 2852
    Stream size                 : 28.0 MiB (0%)
    Title                       : Español-PGS [CinemaniaHDD]
    Language                    : Spanish
    Default                     : No
    Forced                      : No

    Text #3
    ID                          : 6
    Format                      : PGS
    Muxing mode                 : zlib
    Codec ID                    : S_HDMV/PGS
    Codec ID/Info               : Picture based subtitle format used on BDs/HD-DVDs
    Duration                    : 2 h 10 min
    Bit rate                    : 30.2 kb/s
    Count of elements           : 2822
    Stream size                 : 28.2 MiB (0%)
    Title                       : Ingles [CinemaniaHDD]
    Language                    : English
    Default                     : No
    Forced                      : No

    Text #4
    ID                          : 7
    Format                      : UTF-8
    Codec ID                    : S_TEXT/UTF8
    Codec ID/Info               : UTF-8 Plain Text
    Duration                    : 1 h 52 min
    Bit rate                    : 4 b/s
    Count of elements           : 150
    Stream size                 : 3.89 KiB (0%)
    Title                       : Forzados-SRT [CinemaniaHDD]
    Language                    : Spanish
    Default                     : Yes
    Forced                      : Yes

    Text #5
    ID                          : 8
    Format                      : UTF-8
    Codec ID                    : S_TEXT/UTF8
    Codec ID/Info               : UTF-8 Plain Text
    Duration                    : 2 h 10 min
    Bit rate                    : 47 b/s
    Count of elements           : 1425
    Stream size                 : 45.8 KiB (0%)
    Title                       : Español-SRT [CinemaniaHDD]
    Language                    : Spanish
    Default                     : No
    Forced                      : No

    Menu
    00:00:00.000                : :Chapter 1
    00:04:21.553                : :Chapter 2
    00:09:33.156                : :Chapter 3
    00:14:03.426                : :Chapter 4
    00:16:08.176                : :Chapter 5
    00:22:10.830                : :Chapter 6
    00:27:11.046                : :Chapter 7
    00:28:46.350                : :Chapter 8
    00:31:32.891                : :Chapter 9
    00:36:07.540                : :Chapter 10
    00:40:12.660                : :Chapter 11
    00:44:16.487                : :Chapter 12
    00:50:05.753                : :Chapter 13
    00:54:00.863                : :Chapter 14
    01:01:07.414                : :Chapter 15
    01:08:17.927                : :Chapter 16
    01:11:51.098                : :Chapter 17
    01:14:06.525                : :Chapter 18
    01:20:07.052                : :Chapter 19
    01:23:43.227                : :Chapter 20
    01:27:35.834                : :Chapter 21
    01:28:51.243                : :Chapter 22
    01:31:24.980                : :Chapter 23
    01:33:33.900                : :Chapter 24
    01:37:54.410                : :Chapter 25
    01:39:55.198                : :Chapter 26
    01:43:37.962                : :Chapter 27
    01:47:44.166                : :Chapter 28
    01:52:38.460                : :Chapter 29
    01:56:44.623                : :Chapter 30
    02:01:26.696                : :Chapter 31
    02:04:24.248                : :Chapter 32

  • Peso: 25.4 GiB

Sinopsis

Descargar X-Men: Primera generación (2011) REMUX 1080p Latino. Comienzo de la saga de los X-Men, esta es una historia secreta que alude a conocidos acontecimientos mundiales. Antes de que los mutantes se mostraran al mundo, y antes de que cambiaran sus nombres por los de Profesor X y Magneto, Charles Xavier (James McAvoy) y Erik Lehnsherr (Michael Fassbender) eran dos jóvenes que descubrían sus poderes. No había animadversión alguna entre ellos, sino que les unía una sincera amistad y la decisión de trabajar juntos y entrenar a un grupo de jóvenes mutantes para evitar el Armagedón nuclear. Su enemigo común: el malvado Sebastian Shaw (Kevin Bacon), un humano con poderes con el que Erik tiene una cuenta pendiente.

Ficha técnica

Video trailer de la película

Enlaces de descarga

Rip de Bluray

Descargar X-Men: Primera generación (2011) REMUX 1080p Latino


Aportes de DPeliculasHDmega la pass es:dpeliculashdmega.org Aportes de CinemaniaHD la pass es:cinemaniahdd.com Aportes recientes:cinemaniahdd.net
Guardado en : Acción , Aventura , Ciencia ficción , Remux
Etiquetado en :

Películas relacionadas

  • Viviendo con mi ex (2006) REMUX 1080p Latino-CMHDD

    Viviendo con mi ex (2006) REMUX 1080p Latino-CMHDD

    2006
    Viviendo con mi ex (2006) REMUX 1080p Latino-CMHDD

    1h 46m 2006

    Descargar Viviendo con mi ex (2006) REMUX 1080p Latino-CMHDD. Relato sobre las consecuencias de una ruptura...

    Director: Todd Amateau

    Género: Comedia

    Actores: William Dick

  • The Lego Movie (2014) REMUX 4K HDR Latino – CMHDD

    The Lego Movie (2014) REMUX 4K HDR Latino – CMHDD

    2014
    The Lego Movie (2014) REMUX 4K HDR Latino – CMHDD

    1h 40m 2014

    Película basada en los clásicos juguetes LEGO. Emmet, el protagonista de la película, trabaja como...

    Director: Vernessa Cook

    Género: Animación

    Actores: Will Forte

  • The Lego Movie (2014) REMUX 1080p Latino – CMHDD

    The Lego Movie (2014) REMUX 1080p Latino – CMHDD

    2014
    The Lego Movie (2014) REMUX 1080p Latino – CMHDD

    1h 40m 2014

    Película basada en los clásicos juguetes LEGO. Emmet, el protagonista de la película, trabaja como...

    Director: Vernessa Cook

    Género: Animación

    Actores: Will Forte

descargar X-Men: Primera generación (2011) REMUX 1080p Latino Full 1080p 1080p gratis, X-Men: Primera generación (2011) REMUX 1080p Latino Full 1080p mega 1 link, X-Men: Primera generación (2011) REMUX 1080p Latino Full 1080p pelicula completa, descargar X-Men: Primera generación (2011) REMUX 1080p Latino Full 1080p gratis en mega.

X-Men: Primera generación (2011) REMUX 1080p Latino pelicula full hd, X-Men: Primera generación (2011) REMUX 1080p Latino mega latino, X-Men: Primera generación (2011) REMUX 1080p Latino 4k latino, X-Men: Primera generación (2011) REMUX 1080p Latino pelicula completa, X-Men: Primera generación (2011) REMUX 1080p Latino descargar gratis, descargar X-Men: Primera generación (2011) REMUX 1080p Latino pelicula latino, X-Men: Primera generación (2011) REMUX 1080p Latino 1 link mega, X-Men: Primera generación (2011) REMUX 1080p Latino 1 link google drive, X-Men: Primera generación (2011) REMUX 1080p Latino hd 1080p latino.
Comentarios 0