×

¿Problemas para descargar con Mozilla, EDGE? Deshabilita la opción "Abrir vinculos en una pestaña nueva" tal como lo muestra ésta imagen.

X-Men: Fénix Oscura (2019) 1080p Latino

3.683 vistas

Información de X-Men: Fénix Oscura (2019) 1080p Latino

x men fenix oscura 56590 poster

Datos de la película

  • Calidad: 1080p
  • Audio: Español Latino AC3 2.0 iTUNES - Ingles AC3 5.1 BLURAY
  • Subtitulos: Español Latino SRT- FORZADOS SRT
  • Resolución: 1920x808
  • Formato: MKV
  • Codec: H.264
  • Encoder: Chesse92
  • Mediainfo: Clic para Mostrar Datos Ver
  • Dark Phoenix (2019) 1080p Latino.mkv
    Format                      : Matroska
    Format version              : Version 4
    File size                   : 3.31 GiB
    Duration                    : 1 h 53 min
    Overall bit rate            : 4 154 kb/s
    Movie name                  : Dark Phoenix (2019) 1080p Latino
    Encoded date                : UTC 2019-09-03 04:29:58
    Writing application         : mkvmerge v35.0.0 ('All The Love In The World') 64-bit
    Writing library             : libebml v1.3.9 + libmatroska v1.5.2 / Lavf58.20.100

    Video
    ID                          : 1
    Format                      : AVC
    Format/Info                 : Advanced Video Codec
    Format profile              : High@L4.1
    Format settings             : CABAC / 5 Ref Frames
    Format settings, CABAC      : Yes
    Format settings, ReFrames   : 5 frames
    Codec ID                    : V_MPEG4/ISO/AVC
    Duration                    : 1 h 53 min
    Bit rate                    : 3 500 kb/s
    Width                       : 1 920 pixels
    Height                      : 808 pixels
    Display aspect ratio        : 2.40:1
    Frame rate mode             : Constant
    Frame rate                  : 23.976 (24000/1001) FPS
    Color space                 : YUV
    Chroma subsampling          : 4:2:0
    Bit depth                   : 8 bits
    Scan type                   : Progressive
    Bits/(Pixel*Frame)          : 0.094
    Stream size                 : 2.74 GiB (83%)
    Title                       : CinemaniaHDD
    Writing library             : x264 core 157 r2935 545de2f
    Encoding settings           : cabac=1 / ref=5 / deblock=1:0:0 / analyse=0x3:0x133 / me=umh / subme=9 / psy=1 / psy_rd=1.00:0.00 / mixed_ref=1 / me_range=16 / chroma_me=1 / trellis=2 / 8x8dct=1 / cqm=0 / deadzone=21,11 / fast_pskip=1 / chroma_qp_offset=-2 / threads=25 / lookahead_threads=2 / sliced_threads=0 / nr=0 / decimate=1 / interlaced=0 / bluray_compat=0 / constrained_intra=0 / bframes=3 / b_pyramid=2 / b_adapt=2 / b_bias=0 / direct=3 / weightb=1 / open_gop=0 / weightp=2 / keyint=240 / keyint_min=24 / scenecut=40 / intra_refresh=0 / rc_lookahead=60 / rc=abr / mbtree=1 / bitrate=3500 / ratetol=1.0 / qcomp=0.60 / qpmin=0 / qpmax=69 / qpstep=4 / vbv_maxrate=62500 / vbv_bufsize=78125 / nal_hrd=none / filler=0 / ip_ratio=1.40 / aq=1:1.00
    Default                     : Yes
    Forced                      : No
    Color range                 : Limited
    Color primaries             : BT.709
    Transfer characteristics    : BT.709
    Matrix coefficients         : BT.709

    Audio #1
    ID                          : 2
    Format                      : AC-3
    Format/Info                 : Audio Coding 3
    Commercial name             : Dolby Digital
    Codec ID                    : A_AC3
    Duration                    : 1 h 53 min
    Bit rate mode               : Constant
    Bit rate                    : 256 kb/s
    Channel(s)                  : 2 channels
    Channel layout              : L R
    Sampling rate               : 48.0 kHz
    Frame rate                  : 31.250 FPS (1536 SPF)
    Bit depth                   : 16 bits
    Compression mode            : Lossy
    Delay relative to video     : -5 ms
    Stream size                 : 209 MiB (6%)
    Title                       : Español latino [CinemaniaHDD]
    Language                    : Spanish
    Service kind                : Complete Main
    Default                     : Yes
    Forced                      : No

    Audio #2
    ID                          : 3
    Format                      : AC-3
    Format/Info                 : Audio Coding 3
    Commercial name             : Dolby Digital
    Codec ID                    : A_AC3
    Duration                    : 1 h 53 min
    Bit rate mode               : Constant
    Bit rate                    : 448 kb/s
    Channel(s)                  : 6 channels
    Channel layout              : L R C LFE Ls Rs
    Sampling rate               : 48.0 kHz
    Frame rate                  : 31.250 FPS (1536 SPF)
    Bit depth                   : 16 bits
    Compression mode            : Lossy
    Delay relative to video     : -5 ms
    Stream size                 : 365 MiB (11%)
    Title                       : Inglés [CinemaniaHDD]
    Language                    : English
    Service kind                : Complete Main
    Default                     : No
    Forced                      : No

    Text #1
    ID                          : 4
    Format                      : UTF-8
    Codec ID                    : S_TEXT/UTF8
    Codec ID/Info               : UTF-8 Plain Text
    Duration                    : 1 h 52 min
    Bit rate                    : 34 b/s
    Count of elements           : 1058
    Stream size                 : 28.4 KiB (0%)
    Title                       : Español latino [CinemaniaHDD]
    Language                    : Spanish
    Default                     : No
    Forced                      : No

    Text #2
    ID                          : 5
    Format                      : UTF-8
    Codec ID                    : S_TEXT/UTF8
    Codec ID/Info               : UTF-8 Plain Text
    Duration                    : 1 h 19 min
    Bit rate                    : 0 b/s
    Count of elements           : 6
    Stream size                 : 220 Bytes (0%)
    Title                       : Forzados [CinemaniaHDD]
    Language                    : Spanish
    Default                     : Yes
    Forced                      : No

    Menu
    00:00:00.000                : :00:00:00.000
    00:03:28.875                : :00:03:28.875
    00:07:34.621                : :00:07:34.621
    00:11:42.202                : :00:11:42.201
    00:15:44.110                : :00:15:44.110
    00:18:37.408                : :00:18:37.408
    00:25:24.481                : :00:25:24.481
    00:31:40.357                : :00:31:40.357
    00:34:19.307                : :00:34:19.307
    00:40:07.447                : :00:40:07.447
    00:44:36.090                : :00:44:36.090
    00:49:07.778                : :00:49:07.778
    00:55:38.168                : :00:55:38.168
    00:58:57.409                : :00:58:57.409
    01:02:57.274                : :01:02:57.190
    01:10:40.111                : :01:10:40.111
    01:13:42.418                : :01:13:42.418
    01:19:33.477                : :01:19:33.477
    01:22:35.701                : :01:22:35.701
    01:25:49.186                : :01:25:49.061
    01:30:38.516                : :01:30:38.350
    01:32:48.354                : :01:32:48.188
    01:37:59.624                : :01:37:59.624
    01:45:01.128                : :01:45:01.045

  • Peso: 3.31 GiB

Sinopsis

Durante una misión de rescate en el espacio, Jean casi muere al ser alcanzada por una misteriosa fuerza cósmica. Cuando regresa a casa, esta fuerza no solo la ha hecho infinitamente más poderosa, sino también mucho más inestable. Mientras lucha con la entidad que habita en su interior, Jean desata sus poderes de formas que no puede controlar ni comprender. Jean cae en una espiral fuera de control haciendo daño a aquellos que más ama y empieza a destruir los lazos que mantienen unidos a los X-Men. Mientras su familia se desmorona, deben encontrar la forma de unirse, no sólo para salvar el alma de Jean, sino también para salvar el planeta de unos alienígenas que quieren transformar esta fuerza en un arma y conquistar la galaxia.

Ficha técnica

Video trailer de la película

Enlaces de descarga

Rip de Bluray

Descargar X-Men: Fénix Oscura (2019) 1080p Latino




Aportes de DPeliculasHDmega la pass es:dpeliculashdmega.org Aportes de CinemaniaHD la pass es:cinemaniahdd.com
Guardado en : Acción , Ciencia ficción , HD 1080p

Películas relacionadas

descargar X-Men: Fénix Oscura (2019) 1080p Latino 1080p 1080p gratis, X-Men: Fénix Oscura (2019) 1080p Latino 1080p mega 1 link, X-Men: Fénix Oscura (2019) 1080p Latino 1080p pelicula completa, descargar X-Men: Fénix Oscura (2019) 1080p Latino 1080p gratis en mega.

X-Men: Fénix Oscura (2019) 1080p Latino pelicula full hd, X-Men: Fénix Oscura (2019) 1080p Latino mega latino, X-Men: Fénix Oscura (2019) 1080p Latino 4k latino, X-Men: Fénix Oscura (2019) 1080p Latino pelicula completa, X-Men: Fénix Oscura (2019) 1080p Latino descargar gratis, descargar X-Men: Fénix Oscura (2019) 1080p Latino pelicula latino, X-Men: Fénix Oscura (2019) 1080p Latino 1 link mega, X-Men: Fénix Oscura (2019) 1080p Latino 1 link google drive, X-Men: Fénix Oscura (2019) 1080p Latino hd 1080p latino.
Comentarios 0