×

¿Problemas para descargar con Mozilla, EDGE? Deshabilita la opción "Abrir vinculos en una pestaña nueva" tal como lo muestra ésta imagen.

X-Men: Dias Del Futuro Pasado (2014) ROGUE CUT REMUX 1080p Latino

370 vistas

Información de X-Men: Dias Del Futuro Pasado (2014) ROGUE CUT REMUX 1080p Latino

Datos de la película

  • Calidad: Full 1080p
  • Audio: Español Latino AC3 5.1 BLURAY - Ingles DTS-HD Master 7.1 BLURAY
  • Subtitulos: Español Latino PGS - Ingles PGS
  • Resolución: 1920x1080p
  • Formato: MKV
  • Codec: H.264
  • Encoder: CinefiloCool
  • Mediainfo: Clic para Mostrar Datos Ver
  • X-Men Dias Del Futuro Pasado (2014) REMUX 1080p Latino-CMHDD.mkv
    Format                      : Matroska
    Format version              : Version 4
    File size                   : 31.2 GiB
    Duration                    : 2 h 28 min
    Overall bit rate mode       : Variable
    Overall bit rate            : 30.1 Mb/s
    Movie name                  : X-Men. Days of Future Past (2014) CinemaniaHDD.Net
    Encoded date                : UTC 2023-03-06 00:58:12
    Writing application         : mkvmerge v56.1.0 ('My Friend') 64-bit
    Writing library             : libebml v1.4.2 + libmatroska v1.6.4
    Attachments                 : CINEMANIAHD.png

    Video
    ID                          : 1
    Format                      : AVC
    Format/Info                 : Advanced Video Codec
    Format profile              : High@L4.1
    Format settings             : CABAC / 4 Ref Frames
    Format settings, CABAC      : Yes
    Format settings, Reference  : 4 frames
    Codec ID                    : V_MPEG4/ISO/AVC
    Duration                    : 2 h 28 min
    Bit rate mode               : Variable
    Bit rate                    : 24.2 Mb/s
    Maximum bit rate            : 35.5 Mb/s
    Width                       : 1 920 pixels
    Height                      : 1 080 pixels
    Display aspect ratio        : 16:9
    Frame rate mode             : Constant
    Frame rate                  : 23.976 (24000/1001) FPS
    Color space                 : YUV
    Chroma subsampling          : 4:2:0
    Bit depth                   : 8 bits
    Scan type                   : Progressive
    Bits/(Pixel*Frame)          : 0.487
    Stream size                 : 25.1 GiB (81%)
    Title                       : REMUX HD1080p [CinemaniaHDD]
    Default                     : Yes
    Forced                      : Yes

    Audio #1
    ID                          : 2
    Format                      : AC-3
    Format/Info                 : Audio Coding 3
    Commercial name             : Dolby Digital
    Codec ID                    : A_AC3
    Duration                    : 2 h 28 min
    Bit rate mode               : Constant
    Bit rate                    : 448 kb/s
    Channel(s)                  : 6 channels
    Channel layout              : L R C LFE Ls Rs
    Sampling rate               : 48.0 kHz
    Frame rate                  : 31.250 FPS (1536 SPF)
    Compression mode            : Lossy
    Stream size                 : 477 MiB (1%)
    Title                       : Español Latino [CinemaniaHDD]
    Language                    : Spanish
    Service kind                : Complete Main
    Default                     : Yes
    Forced                      : Yes

    Audio #2
    ID                          : 3
    Format                      : DTS ES XLL
    Format/Info                 : Digital Theater Systems
    Commercial name             : DTS-HD Master Audio
    Codec ID                    : A_DTS
    Duration                    : 2 h 28 min
    Bit rate mode               : Variable
    Bit rate                    : 5 390 kb/s
    Channel(s)                  : 8 channels
    Channel layout              : C L R Ls Rs LFE Lb Rb
    Sampling rate               : 48.0 kHz
    Frame rate                  : 93.750 FPS (512 SPF)
    Bit depth                   : 24 bits
    Compression mode            : Lossless
    Stream size                 : 5.60 GiB (18%)
    Title                       : Ingles [CinemaniaHDD]
    Language                    : English
    Default                     : No
    Forced                      : No

    Text #1
    ID                          : 4
    Format                      : PGS
    Muxing mode                 : zlib
    Codec ID                    : S_HDMV/PGS
    Codec ID/Info               : Picture based subtitle format used on BDs/HD-DVDs
    Duration                    : 1 h 33 min
    Bit rate                    : 852 b/s
    Count of elements           : 62
    Stream size                 : 582 KiB (0%)
    Title                       : Forzados-PGS [CinemaniaHDD]
    Language                    : Spanish
    Default                     : No
    Forced                      : No

    Text #2
    ID                          : 5
    Format                      : PGS
    Muxing mode                 : zlib
    Codec ID                    : S_HDMV/PGS
    Codec ID/Info               : Picture based subtitle format used on BDs/HD-DVDs
    Duration                    : 2 h 27 min
    Bit rate                    : 25.9 kb/s
    Count of elements           : 2856
    Stream size                 : 27.3 MiB (0%)
    Title                       : Español-PGS [CinemaniaHDD]
    Language                    : Spanish
    Default                     : No
    Forced                      : No

    Text #3
    ID                          : 6
    Format                      : PGS
    Muxing mode                 : zlib
    Codec ID                    : S_HDMV/PGS
    Codec ID/Info               : Picture based subtitle format used on BDs/HD-DVDs
    Duration                    : 2 h 27 min
    Bit rate                    : 32.8 kb/s
    Count of elements           : 3836
    Stream size                 : 34.6 MiB (0%)
    Title                       : Ingles [CinemaniaHDD]
    Language                    : English
    Default                     : No
    Forced                      : No

    Text #4
    ID                          : 7
    Format                      : UTF-8
    Codec ID                    : S_TEXT/UTF8
    Codec ID/Info               : UTF-8 Plain Text
    Duration                    : 1 h 23 min
    Bit rate                    : 1 b/s
    Count of elements           : 28
    Stream size                 : 781 Bytes (0%)
    Title                       : Forzados-SRT [CinemaniaHDD]
    Language                    : Spanish
    Default                     : Yes
    Forced                      : Yes

    Text #5
    ID                          : 8
    Format                      : UTF-8
    Codec ID                    : S_TEXT/UTF8
    Codec ID/Info               : UTF-8 Plain Text
    Duration                    : 2 h 26 min
    Bit rate                    : 41 b/s
    Count of elements           : 1414
    Stream size                 : 44.6 KiB (0%)
    Title                       : Español-SRT [CinemaniaHDD]
    Language                    : Spanish
    Default                     : No
    Forced                      : No

    Menu
    00:00:00.000                : :Chapter 01
    00:03:33.338                : :Chapter 02
    00:08:04.734                : :Chapter 03
    00:10:34.217                : :Chapter 04
    00:15:11.410                : :Chapter 05
    00:18:44.248                : :Chapter 06
    00:22:43.529                : :Chapter 07
    00:24:38.769                : :Chapter 08
    00:29:05.619                : :Chapter 09
    00:33:03.440                : :Chapter 10
    00:37:11.896                : :Chapter 11
    00:38:49.827                : :Chapter 12
    00:41:06.923                : :Chapter 13
    00:43:50.336                : :Chapter 14
    00:50:05.377                : :Chapter 15
    00:52:07.082                : :Chapter 16
    00:55:11.391                : :Chapter 17
    00:57:56.348                : :Chapter 18
    01:01:04.661                : :Chapter 19
    01:04:01.421                : :Chapter 20
    01:06:39.829                : :Chapter 21
    01:10:22.802                : :Chapter 22
    01:13:00.459                : :Chapter 23
    01:16:28.334                : :Chapter 24
    01:18:48.724                : :Chapter 25
    01:20:44.590                : :Chapter 26
    01:22:46.962                : :Chapter 27
    01:28:07.574                : :Chapter 28
    01:31:19.057                : :Chapter 29
    01:33:50.958                : :Chapter 30
    01:39:22.373                : :Chapter 31
    01:42:10.291                : :Chapter 32
    01:44:32.016                : :Chapter 33
    01:49:13.547                : :Chapter 34
    01:51:00.862                : :Chapter 35
    01:54:54.304                : :Chapter 36
    01:59:15.940                : :Chapter 37
    02:02:13.743                : :Chapter 38
    02:04:30.504                : :Chapter 39
    02:08:16.230                : :Chapter 40
    02:13:27.583                : :Chapter 41
    02:16:57.250                : :Chapter 42
    02:19:19.809                : :Chapter 43
    02:27:34.011                : :Chapter 44
    02:28:45.458                : :Chapter 45

  • Peso: 31.2 GiB

Sinopsis

Descargar X-Men: Dias Del Futuro Pasado (2014) ROGUE CUT REMUX 1080p Latino. Ambientada en la década de los 70, los miembros de la famosa Patrulla X tendrán que evitar un futuro apocalíptico en el que los mutantes luchan por sobrevivir en campos de concentración controlados por los temibles Centinelas. Para ello, los héroes del universo Marvel deberán unificar sus fuerzas dejando a un lado la creciente enemistad de los bandos liderados por Charles Xavier y Magneto. Trask Industries, la empresa encargada de crear a estos gigantescos cazamutantes, será el origen de todos sus problemas. Tan sólo viajando en el tiempo podrán impedir la masacre que se avecina. ¿Serán capaces nuestros héroes de derrocar a la multinacional y evitar así el exterminio de su especie?

Ficha técnica

Video trailer de la película

Enlaces de descarga

Rip de Bluray

Descargar X-Men: Dias Del Futuro Pasado (2014) ROGUE CUT REMUX 1080p Latino


Aportes de DPeliculasHDmega la pass es:dpeliculashdmega.org Aportes de CinemaniaHD la pass es:cinemaniahdd.com Aportes recientes:cinemaniahdd.net
Guardado en : Acción , Aventura , Ciencia ficción , Remux
Etiquetado en :

Películas relacionadas

descargar X-Men: Dias Del Futuro Pasado (2014) ROGUE CUT REMUX 1080p Latino Full 1080p 1080p gratis, X-Men: Dias Del Futuro Pasado (2014) ROGUE CUT REMUX 1080p Latino Full 1080p mega 1 link, X-Men: Dias Del Futuro Pasado (2014) ROGUE CUT REMUX 1080p Latino Full 1080p pelicula completa, descargar X-Men: Dias Del Futuro Pasado (2014) ROGUE CUT REMUX 1080p Latino Full 1080p gratis en mega.

X-Men: Dias Del Futuro Pasado (2014) ROGUE CUT REMUX 1080p Latino pelicula full hd, X-Men: Dias Del Futuro Pasado (2014) ROGUE CUT REMUX 1080p Latino mega latino, X-Men: Dias Del Futuro Pasado (2014) ROGUE CUT REMUX 1080p Latino 4k latino, X-Men: Dias Del Futuro Pasado (2014) ROGUE CUT REMUX 1080p Latino pelicula completa, X-Men: Dias Del Futuro Pasado (2014) ROGUE CUT REMUX 1080p Latino descargar gratis, descargar X-Men: Dias Del Futuro Pasado (2014) ROGUE CUT REMUX 1080p Latino pelicula latino, X-Men: Dias Del Futuro Pasado (2014) ROGUE CUT REMUX 1080p Latino 1 link mega, X-Men: Dias Del Futuro Pasado (2014) ROGUE CUT REMUX 1080p Latino 1 link google drive, X-Men: Dias Del Futuro Pasado (2014) ROGUE CUT REMUX 1080p Latino hd 1080p latino.
Comentarios 0