×

¿Problemas para descargar con Mozilla, EDGE? Deshabilita la opción "Abrir vinculos en una pestaña nueva" tal como lo muestra ésta imagen.

X-Men: Dias Del Futuro Pasado (2014) ROGUE CUT Full HD 1080p Latino

2.803 vistas

Información de X-Men: Dias Del Futuro Pasado (2014) ROGUE CUT Full HD 1080p Latino

Datos de la película

  • Calidad: Full 1080p
  • Audio: Español Latino AC3 5.1 BLURAY - Ingles DTS 5.1 BLURAY
  • Subtitulos: Español Latino PGS - Ingles PGS
  • Resolución: 1920x1080p
  • Formato: MKV
  • Codec: H.264
  • Encoder: Dracarys
  • Mediainfo: Clic para Mostrar Datos Ver
  • X-Men Dias Del Futuro Pasado (2014) RCut Full HD 1080p Latino-CMHDD.mkv
    Format                      : Matroska
    Format version              : Version 4
    File size                   : 5.83 GiB
    Duration                    : 2 h 28 min
    Overall bit rate            : 5 612 kb/s
    Movie name                  : X-Men. Days of Future Past (2014) CinemaniaHDD.Net
    Encoded date                : UTC 2023-03-06 20:43:59
    Writing application         : mkvmerge v56.1.0 ('My Friend') 64-bit
    Writing library             : libebml v1.4.2 + libmatroska v1.6.4
    Attachments                 : CINEMANIAHD.png

    Video
    ID                          : 1
    Format                      : AVC
    Format/Info                 : Advanced Video Codec
    Format profile              : High@L4.1
    Format settings             : CABAC / 4 Ref Frames
    Format settings, CABAC      : Yes
    Format settings, Reference  : 4 frames
    Codec ID                    : V_MPEG4/ISO/AVC
    Duration                    : 2 h 28 min
    Bit rate                    : 3 634 kb/s
    Width                       : 1 920 pixels
    Height                      : 1 080 pixels
    Display aspect ratio        : 16:9
    Frame rate mode             : Constant
    Frame rate                  : 23.976 (24000/1001) FPS
    Color space                 : YUV
    Chroma subsampling          : 4:2:0
    Bit depth                   : 8 bits
    Scan type                   : Progressive
    Bits/(Pixel*Frame)          : 0.073
    Stream size                 : 3.78 GiB (65%)
    Title                       : Full HD1080p [CinemaniaHDD]
    Writing library             : x264 core 163 r3059 b684ebe0
    Encoding settings           : cabac=1 / ref=4 / deblock=1:0:0 / analyse=0x3:0x133 / me=esa / subme=10 / psy=1 / psy_rd=1.00:0.00 / mixed_ref=1 / me_range=24 / chroma_me=1 / trellis=2 / 8x8dct=1 / cqm=0 / deadzone=21,11 / fast_pskip=1 / chroma_qp_offset=-2 / threads=24 / lookahead_threads=4 / sliced_threads=0 / nr=0 / decimate=1 / interlaced=0 / bluray_compat=0 / constrained_intra=0 / bframes=8 / b_pyramid=2 / b_adapt=2 / b_bias=0 / direct=3 / weightb=1 / open_gop=0 / weightp=2 / keyint=240 / keyint_min=24 / scenecut=40 / intra_refresh=0 / rc_lookahead=60 / rc=crf / mbtree=1 / crf=21.0 / qcomp=0.60 / qpmin=0 / qpmax=69 / qpstep=4 / vbv_maxrate=62500 / vbv_bufsize=78125 / crf_max=0.0 / nal_hrd=none / filler=0 / ip_ratio=1.40 / aq=1:1.00
    Default                     : Yes
    Forced                      : Yes
    Color range                 : Limited
    Color primaries             : BT.709
    Transfer characteristics    : BT.709
    Matrix coefficients         : BT.709

    Audio #1
    ID                          : 2
    Format                      : AC-3
    Format/Info                 : Audio Coding 3
    Commercial name             : Dolby Digital
    Codec ID                    : A_AC3
    Duration                    : 2 h 28 min
    Bit rate mode               : Constant
    Bit rate                    : 448 kb/s
    Channel(s)                  : 6 channels
    Channel layout              : L R C LFE Ls Rs
    Sampling rate               : 48.0 kHz
    Frame rate                  : 31.250 FPS (1536 SPF)
    Compression mode            : Lossy
    Stream size                 : 477 MiB (8%)
    Title                       : Español Latino [CinemaniaHDD]
    Language                    : Spanish
    Service kind                : Complete Main
    Default                     : Yes
    Forced                      : Yes

    Audio #2
    ID                          : 3
    Format                      : DTS ES
    Format/Info                 : Digital Theater Systems
    Commercial name             : DTS-ES Matrix
    Codec ID                    : A_DTS
    Duration                    : 2 h 28 min
    Bit rate mode               : Constant
    Bit rate                    : 1 509 kb/s
    Channel(s)                  : 6 channels
    Channel(s)_Original         : 7 channels
    ChannelLayout_Original      : C L R Ls Rs Cs LFE
    Sampling rate               : 48.0 kHz
    Frame rate                  : 93.750 FPS (512 SPF)
    Bit depth                   : 24 bits
    Compression mode            : Lossy
    Stream size                 : 1.57 GiB (27%)
    Title                       : Ingles [CinemaniaHDD]
    Language                    : English
    Default                     : No
    Forced                      : No

    Text #1
    ID                          : 4
    Format                      : PGS
    Muxing mode                 : zlib
    Codec ID                    : S_HDMV/PGS
    Codec ID/Info               : Picture based subtitle format used on BDs/HD-DVDs
    Duration                    : 1 h 33 min
    Bit rate                    : 852 b/s
    Count of elements           : 62
    Stream size                 : 582 KiB (0%)
    Title                       : Forzados-PGS [CinemaniaHDD]
    Language                    : Spanish
    Default                     : No
    Forced                      : No

    Text #2
    ID                          : 5
    Format                      : PGS
    Muxing mode                 : zlib
    Codec ID                    : S_HDMV/PGS
    Codec ID/Info               : Picture based subtitle format used on BDs/HD-DVDs
    Duration                    : 2 h 27 min
    Bit rate                    : 25.9 kb/s
    Count of elements           : 2856
    Stream size                 : 27.3 MiB (0%)
    Title                       : Español-PGS [CinemaniaHDD]
    Language                    : Spanish
    Default                     : No
    Forced                      : No

    Text #3
    ID                          : 6
    Format                      : PGS
    Muxing mode                 : zlib
    Codec ID                    : S_HDMV/PGS
    Codec ID/Info               : Picture based subtitle format used on BDs/HD-DVDs
    Duration                    : 2 h 27 min
    Bit rate                    : 32.8 kb/s
    Count of elements           : 3836
    Stream size                 : 34.6 MiB (1%)
    Title                       : Ingles [CinemaniaHDD]
    Language                    : English
    Default                     : No
    Forced                      : No

    Text #4
    ID                          : 7
    Format                      : UTF-8
    Codec ID                    : S_TEXT/UTF8
    Codec ID/Info               : UTF-8 Plain Text
    Duration                    : 1 h 23 min
    Bit rate                    : 1 b/s
    Count of elements           : 28
    Stream size                 : 781 Bytes (0%)
    Title                       : Forzados-SRT [CinemaniaHDD]
    Language                    : Spanish
    Default                     : Yes
    Forced                      : Yes

    Text #5
    ID                          : 8
    Format                      : UTF-8
    Codec ID                    : S_TEXT/UTF8
    Codec ID/Info               : UTF-8 Plain Text
    Duration                    : 2 h 26 min
    Bit rate                    : 41 b/s
    Count of elements           : 1414
    Stream size                 : 44.6 KiB (0%)
    Title                       : Español-SRT [CinemaniaHDD]
    Language                    : Spanish
    Default                     : No
    Forced                      : No

    Menu
    00:00:00.000                : :Chapter 01
    00:03:33.338                : :Chapter 02
    00:08:04.734                : :Chapter 03
    00:10:34.217                : :Chapter 04
    00:15:11.410                : :Chapter 05
    00:18:44.248                : :Chapter 06
    00:22:43.529                : :Chapter 07
    00:24:38.769                : :Chapter 08
    00:29:05.619                : :Chapter 09
    00:33:03.440                : :Chapter 10
    00:37:11.896                : :Chapter 11
    00:38:49.827                : :Chapter 12
    00:41:06.923                : :Chapter 13
    00:43:50.336                : :Chapter 14
    00:50:05.377                : :Chapter 15
    00:52:07.082                : :Chapter 16
    00:55:11.391                : :Chapter 17
    00:57:56.348                : :Chapter 18
    01:01:04.661                : :Chapter 19
    01:04:01.421                : :Chapter 20
    01:06:39.829                : :Chapter 21
    01:10:22.802                : :Chapter 22
    01:13:00.459                : :Chapter 23
    01:16:28.334                : :Chapter 24
    01:18:48.724                : :Chapter 25
    01:20:44.590                : :Chapter 26
    01:22:46.962                : :Chapter 27
    01:28:07.574                : :Chapter 28
    01:31:19.057                : :Chapter 29
    01:33:50.958                : :Chapter 30
    01:39:22.373                : :Chapter 31
    01:42:10.291                : :Chapter 32
    01:44:32.016                : :Chapter 33
    01:49:13.547                : :Chapter 34
    01:51:00.862                : :Chapter 35
    01:54:54.304                : :Chapter 36
    01:59:15.940                : :Chapter 37
    02:02:13.743                : :Chapter 38
    02:04:30.504                : :Chapter 39
    02:08:16.230                : :Chapter 40
    02:13:27.583                : :Chapter 41
    02:16:57.250                : :Chapter 42
    02:19:19.809                : :Chapter 43
    02:27:34.011                : :Chapter 44
    02:28:45.458                : :Chapter 45

  • Peso: 5.83 GiB

Sinopsis

Descargar X-Men: Dias Del Futuro Pasado (2014) Full HD 1080p Latino. Ambientada en la década de los 70, los miembros de la famosa Patrulla X tendrán que evitar un futuro apocalíptico en el que los mutantes luchan por sobrevivir en campos de concentración controlados por los temibles Centinelas. Para ello, los héroes del universo Marvel deberán unificar sus fuerzas dejando a un lado la creciente enemistad de los bandos liderados por Charles Xavier y Magneto. Trask Industries, la empresa encargada de crear a estos gigantescos cazamutantes, será el origen de todos sus problemas. Tan sólo viajando en el tiempo podrán impedir la masacre que se avecina. ¿Serán capaces nuestros héroes de derrocar a la multinacional y evitar así el exterminio de su especie?

RESUBIDO!!!

Ficha técnica

Video trailer de la película

Enlaces de descarga

Rip de Bluray

Descargar X-Men: Dias Del Futuro Pasado (2014) ROGUE CUT Full HD 1080p Latino




Aportes de DPeliculasHDmega la pass es:dpeliculashdmega.org Aportes de CinemaniaHD la pass es:cinemaniahdd.com Aportes recientes:cinemaniahdd.net
Etiquetado en :

Películas relacionadas

  • Combate clandestino (2024) AMZN WEB-DL 1080p Latino

    Combate clandestino (2024) AMZN WEB-DL 1080p Latino

    2024
    Combate clandestino (2024) AMZN WEB-DL 1080p Latino

    1h 30m 2024

    Descargar Combate clandestino (2024) AMZN WEB-DL 1080p Latino. Un ex soldado a la deriva se convierte...

    Director: Christian Sesma

    Género: Acción

    Actores: Tyler Wombles

  • ¡Patos! (2023) HD 1080p Latino

    ¡Patos! (2023) HD 1080p Latino

    2023
    ¡Patos! (2023) HD 1080p Latino

    1h 23m 2023

    Descargar ¡Patos! (2023) HD 1080p Latino. Después de que una familia de patos migratorios aterriza...

    Director: Guy-Laurent Homsy

    Género: Acción

    Actores: Zeno Robinson

  • ¡Patos! (2023) PLACEBO Full HD 1080p Latino

    ¡Patos! (2023) PLACEBO Full HD 1080p Latino

    2023
    ¡Patos! (2023) PLACEBO Full HD 1080p Latino

    1h 23m 2023

    Descargar ¡Patos! (2023) PLACEBO Full HD 1080p Latino. Después de que una familia de patos migratorios...

    Director: Guy-Laurent Homsy

    Género: Acción

    Actores: Zeno Robinson

  • ¡Patos! (2023) REMUX 1080p Latino

    ¡Patos! (2023) REMUX 1080p Latino

    2023
    ¡Patos! (2023) REMUX 1080p Latino

    1h 23m 2023

    Descargar ¡Patos! (2023) REMUX 1080p Latino. Después de que una familia de patos migratorios aterriza...

    Director: Guy-Laurent Homsy

    Género: Acción

    Actores: Zeno Robinson

descargar X-Men: Dias Del Futuro Pasado (2014) ROGUE CUT Full HD 1080p Latino Full 1080p 1080p gratis, X-Men: Dias Del Futuro Pasado (2014) ROGUE CUT Full HD 1080p Latino Full 1080p mega 1 link, X-Men: Dias Del Futuro Pasado (2014) ROGUE CUT Full HD 1080p Latino Full 1080p pelicula completa, descargar X-Men: Dias Del Futuro Pasado (2014) ROGUE CUT Full HD 1080p Latino Full 1080p gratis en mega.

X-Men: Dias Del Futuro Pasado (2014) ROGUE CUT Full HD 1080p Latino pelicula full hd, X-Men: Dias Del Futuro Pasado (2014) ROGUE CUT Full HD 1080p Latino mega latino, X-Men: Dias Del Futuro Pasado (2014) ROGUE CUT Full HD 1080p Latino 4k latino, X-Men: Dias Del Futuro Pasado (2014) ROGUE CUT Full HD 1080p Latino pelicula completa, X-Men: Dias Del Futuro Pasado (2014) ROGUE CUT Full HD 1080p Latino descargar gratis, descargar X-Men: Dias Del Futuro Pasado (2014) ROGUE CUT Full HD 1080p Latino pelicula latino, X-Men: Dias Del Futuro Pasado (2014) ROGUE CUT Full HD 1080p Latino 1 link mega, X-Men: Dias Del Futuro Pasado (2014) ROGUE CUT Full HD 1080p Latino 1 link google drive, X-Men: Dias Del Futuro Pasado (2014) ROGUE CUT Full HD 1080p Latino hd 1080p latino.
Comentarios 5