×

¿Problemas para descargar con Mozilla, EDGE? Deshabilita la opción "Abrir vinculos en una pestaña nueva" tal como lo muestra ésta imagen.

X-Men: Apocalipsis (2016) REMUX 1080p Latino

377 vistas

Información de X-Men: Apocalipsis (2016) REMUX 1080p Latino

Datos de la película

  • Calidad: Full 1080p
  • Audio: Español Latino AC3 5.1 BLURAY - Ingles DTS-HD Master 7.1 BLURAY
  • Subtitulos: Español Latino PGS - Ingles PGS
  • Resolución: 1920x1080p
  • Formato: MKV
  • Codec: H.264
  • Encoder: CinefiloCool
  • Mediainfo: Clic para Mostrar Datos Ver
  • X-Men. Apocalipsis (2016) REMUX 1080p Latino-CMHDD.mkv
    Format                      : Matroska
    Format version              : Version 4
    File size                   : 29.3 GiB
    Duration                    : 2 h 23 min
    Overall bit rate mode       : Variable
    Overall bit rate            : 29.1 Mb/s
    Movie name                  : X-Men. Apocalypse (2016) CinemaniaHDD.Net
    Encoded date                : UTC 2023-03-06 03:40:20
    Writing application         : mkvmerge v56.1.0 ('My Friend') 64-bit
    Writing library             : libebml v1.4.2 + libmatroska v1.6.4
    Attachments                 : CINEMANIAHD.png

    Video
    ID                          : 1
    Format                      : AVC
    Format/Info                 : Advanced Video Codec
    Format profile              : High@L4.1
    Format settings             : CABAC / 4 Ref Frames
    Format settings, CABAC      : Yes
    Format settings, Reference  : 4 frames
    Codec ID                    : V_MPEG4/ISO/AVC
    Duration                    : 2 h 23 min
    Bit rate mode               : Variable
    Bit rate                    : 23.4 Mb/s
    Maximum bit rate            : 34.0 Mb/s
    Width                       : 1 920 pixels
    Height                      : 1 080 pixels
    Display aspect ratio        : 16:9
    Frame rate mode             : Constant
    Frame rate                  : 23.976 (24000/1001) FPS
    Color space                 : YUV
    Chroma subsampling          : 4:2:0
    Bit depth                   : 8 bits
    Scan type                   : Progressive
    Bits/(Pixel*Frame)          : 0.471
    Stream size                 : 23.5 GiB (80%)
    Title                       : REMUX HD1080p [CinemaniaHDD]
    Default                     : Yes
    Forced                      : Yes

    Audio #1
    ID                          : 2
    Format                      : AC-3
    Format/Info                 : Audio Coding 3
    Commercial name             : Dolby Digital
    Codec ID                    : A_AC3
    Duration                    : 2 h 23 min
    Bit rate mode               : Constant
    Bit rate                    : 448 kb/s
    Channel(s)                  : 6 channels
    Channel layout              : L R C LFE Ls Rs
    Sampling rate               : 48.0 kHz
    Frame rate                  : 31.250 FPS (1536 SPF)
    Compression mode            : Lossy
    Stream size                 : 461 MiB (2%)
    Title                       : Español Latino [CinemaniaHDD]
    Language                    : Spanish
    Service kind                : Complete Main
    Default                     : Yes
    Forced                      : Yes

    Audio #2
    ID                          : 3
    Format                      : DTS ES XLL
    Format/Info                 : Digital Theater Systems
    Commercial name             : DTS-HD Master Audio
    Codec ID                    : A_DTS
    Duration                    : 2 h 23 min
    Bit rate mode               : Variable
    Bit rate                    : 5 216 kb/s
    Channel(s)                  : 8 channels
    Channel layout              : C L R Ls Rs LFE Lb Rb
    Sampling rate               : 48.0 kHz
    Frame rate                  : 93.750 FPS (512 SPF)
    Bit depth                   : 24 bits
    Compression mode            : Lossless
    Stream size                 : 5.24 GiB (18%)
    Title                       : Ingles [CinemaniaHDD]
    Language                    : English
    Default                     : No
    Forced                      : No

    Text #1
    ID                          : 4
    Format                      : PGS
    Muxing mode                 : zlib
    Codec ID                    : S_HDMV/PGS
    Codec ID/Info               : Picture based subtitle format used on BDs/HD-DVDs
    Duration                    : 2 h 20 min
    Bit rate                    : 1 633 b/s
    Count of elements           : 220
    Stream size                 : 1.64 MiB (0%)
    Title                       : Forzados-PGS [CinemaniaHDD]
    Language                    : Spanish
    Default                     : No
    Forced                      : No

    Text #2
    ID                          : 5
    Format                      : PGS
    Muxing mode                 : zlib
    Codec ID                    : S_HDMV/PGS
    Codec ID/Info               : Picture based subtitle format used on BDs/HD-DVDs
    Duration                    : 2 h 22 min
    Bit rate                    : 22.4 kb/s
    Count of elements           : 2816
    Stream size                 : 22.9 MiB (0%)
    Title                       : Español-PGS [CinemaniaHDD]
    Language                    : Spanish
    Default                     : No
    Forced                      : No

    Text #3
    ID                          : 6
    Format                      : PGS
    Muxing mode                 : zlib
    Codec ID                    : S_HDMV/PGS
    Codec ID/Info               : Picture based subtitle format used on BDs/HD-DVDs
    Duration                    : 2 h 12 min
    Bit rate                    : 25.1 kb/s
    Count of elements           : 2916
    Stream size                 : 23.7 MiB (0%)
    Title                       : Ingles [CinemaniaHDD]
    Language                    : English
    Default                     : No
    Forced                      : No

    Text #4
    ID                          : 7
    Format                      : UTF-8
    Codec ID                    : S_TEXT/UTF8
    Codec ID/Info               : UTF-8 Plain Text
    Duration                    : 2 h 20 min
    Bit rate                    : 2 b/s
    Count of elements           : 108
    Stream size                 : 2.66 KiB (0%)
    Title                       : Forzados-SRT [CinemaniaHDD]
    Language                    : Spanish
    Default                     : Yes
    Forced                      : Yes

    Text #5
    ID                          : 8
    Format                      : UTF-8
    Codec ID                    : S_TEXT/UTF8
    Codec ID/Info               : UTF-8 Plain Text
    Duration                    : 2 h 22 min
    Bit rate                    : 36 b/s
    Count of elements           : 1406
    Stream size                 : 38.3 KiB (0%)
    Title                       : Español-SRT [CinemaniaHDD]
    Language                    : Spanish
    Default                     : No
    Forced                      : No

    Menu
    00:00:00.000                : :Chapter 1
    00:08:18.790                : :Chapter 2
    00:14:13.186                : :Chapter 3
    00:18:07.086                : :Chapter 4
    00:24:55.494                : :Chapter 5
    00:30:45.344                : :Chapter 6
    00:36:35.235                : :Chapter 7
    00:41:00.083                : :Chapter 8
    00:45:56.504                : :Chapter 9
    00:49:24.295                : :Chapter 10
    00:55:22.611                : :Chapter 11
    00:59:36.823                : :Chapter 12
    01:04:43.671                : :Chapter 13
    01:12:35.852                : :Chapter 14
    01:17:32.898                : :Chapter 15
    01:22:18.517                : :Chapter 16
    01:27:45.594                : :Chapter 17
    01:34:05.807                : :Chapter 18
    01:36:46.634                : :Chapter 19
    01:39:50.902                : :Chapter 20
    01:43:34.375                : :Chapter 21
    01:49:57.382                : :Chapter 22
    01:55:08.360                : :Chapter 23
    01:57:21.660                : :Chapter 24
    02:03:50.548                : :Chapter 25
    02:07:56.711                : :Chapter 26
    02:10:59.101                : :Chapter 27
    02:12:54.091                : :Chapter 28

  • Peso: 29.3 GiB

Sinopsis

Descargar X-Men: Apocalipsis (2016) REMUX 1080p Latino. Desde los albores de la civilización, fue adorado como un dios. Apocalypse, el primer y más poderoso mutante del universo X-Men de Marvel, acumuló los poderes de muchos otros mutantes, convirtiéndose en inmortal e invencible. Pero al despertar tras miles de años, se encuentra desilusionado con el mundo en que se encuentra y decide reclutar un equipo de mutantes poderosos, entre ellos a un descorazonado Magneto (Michael Fassbender), con el fin de limpiar la humanidad y crear una nueva orden mundial, sobre la cual él reinará. A medida que el destino de la tierra está en juego, Raven (Jennifer Lawrence) con la ayuda del Profesor X (James McAvoy) se unirán junto a un equipo de jóvenes X-Men para detener a su mayor enemigo y salvar así a la humanidad de la destrucción total.

Ficha técnica

Video trailer de la película

Enlaces de descarga

Rip de Bluray

Descargar X-Men: Apocalipsis (2016) REMUX 1080p Latino


Aportes de DPeliculasHDmega la pass es:dpeliculashdmega.org Aportes de CinemaniaHD la pass es:cinemaniahdd.com Aportes recientes:cinemaniahdd.net
Etiquetado en :

Películas relacionadas

  • Viviendo con mi ex (2006) REMUX 1080p Latino-CMHDD

    Viviendo con mi ex (2006) REMUX 1080p Latino-CMHDD

    2006
    Viviendo con mi ex (2006) REMUX 1080p Latino-CMHDD

    1h 46m 2006

    Descargar Viviendo con mi ex (2006) REMUX 1080p Latino-CMHDD. Relato sobre las consecuencias de una ruptura...

    Director: Todd Amateau

    Género: Comedia

    Actores: William Dick

  • The Lego Movie (2014) REMUX 4K HDR Latino – CMHDD

    The Lego Movie (2014) REMUX 4K HDR Latino – CMHDD

    2014
    The Lego Movie (2014) REMUX 4K HDR Latino – CMHDD

    1h 40m 2014

    Película basada en los clásicos juguetes LEGO. Emmet, el protagonista de la película, trabaja como...

    Director: Vernessa Cook

    Género: Animación

    Actores: Will Forte

  • The Lego Movie (2014) REMUX 1080p Latino – CMHDD

    The Lego Movie (2014) REMUX 1080p Latino – CMHDD

    2014
    The Lego Movie (2014) REMUX 1080p Latino – CMHDD

    1h 40m 2014

    Película basada en los clásicos juguetes LEGO. Emmet, el protagonista de la película, trabaja como...

    Director: Vernessa Cook

    Género: Animación

    Actores: Will Forte

descargar X-Men: Apocalipsis (2016) REMUX 1080p Latino Full 1080p 1080p gratis, X-Men: Apocalipsis (2016) REMUX 1080p Latino Full 1080p mega 1 link, X-Men: Apocalipsis (2016) REMUX 1080p Latino Full 1080p pelicula completa, descargar X-Men: Apocalipsis (2016) REMUX 1080p Latino Full 1080p gratis en mega.

X-Men: Apocalipsis (2016) REMUX 1080p Latino pelicula full hd, X-Men: Apocalipsis (2016) REMUX 1080p Latino mega latino, X-Men: Apocalipsis (2016) REMUX 1080p Latino 4k latino, X-Men: Apocalipsis (2016) REMUX 1080p Latino pelicula completa, X-Men: Apocalipsis (2016) REMUX 1080p Latino descargar gratis, descargar X-Men: Apocalipsis (2016) REMUX 1080p Latino pelicula latino, X-Men: Apocalipsis (2016) REMUX 1080p Latino 1 link mega, X-Men: Apocalipsis (2016) REMUX 1080p Latino 1 link google drive, X-Men: Apocalipsis (2016) REMUX 1080p Latino hd 1080p latino.
Comentarios 0