×

¿Problemas para descargar con Mozilla, EDGE? Deshabilita la opción "Abrir vinculos en una pestaña nueva" tal como lo muestra ésta imagen.

X-Men ’97 (2024) Temporada 1 WEB-DL 1080p Latino

51 vistas

Información de X-Men ’97 (2024) Temporada 1 WEB-DL 1080p Latino

Datos de la película

  • Calidad: WEBDL
  • Audio: Se especifica abajo de la Sinopsis
  • Subtitulos: Español Latino SRT- FORZADOS SRT
  • Resolución: 1920x1080p
  • Formato: MKV
  • Codec: H.264
  • Encoder: Melkor
  • Mediainfo: Clic para Mostrar Datos Ver
  • X-Men 97 S01E01 (2024) WebDL 1080p Latino.mkv
    Format                      : Matroska
    Format version              : Version 4
    File size                   : 1.78 GiB
    Duration                    : 30 min 30 s
    Overall bit rate mode       : Variable
    Overall bit rate            : 8 370 kb/s
    Movie name                  : CinemaniaHDD.Net
    Encoded date                : UTC 2024-03-20 16:33:26
    Writing application         : mkvmerge v56.1.0 ('My Friend') 64-bit
    Writing library             : libebml v1.4.2 + libmatroska v1.6.4
    Attachments                 : CINEMANIAHD.png
    Site                        : CinemaniaHDD.Net
    Uploader                    : Melkor

    Video
    ID                          : 1
    Format                      : AVC
    Format/Info                 : Advanced Video Codec
    Format profile              : High@L4
    Format settings             : CABAC / 4 Ref Frames
    Format settings, CABAC      : Yes
    Format settings, Reference  : 4 frames
    Codec ID                    : V_MPEG4/ISO/AVC
    Duration                    : 30 min 30 s
    Bit rate mode               : Variable
    Bit rate                    : 7 343 kb/s
    Maximum bit rate            : 12.7 Mb/s
    Width                       : 1 920 pixels
    Height                      : 1 080 pixels
    Display aspect ratio        : 16:9
    Frame rate mode             : Constant
    Frame rate                  : 24.000 FPS
    Color space                 : YUV
    Chroma subsampling          : 4:2:0
    Bit depth                   : 8 bits
    Scan type                   : Progressive
    Bits/(Pixel*Frame)          : 0.148
    Stream size                 : 1.56 GiB (88%)
    Title                       : WEB HD1080p [CinemaniaHDD]
    Language                    : English
    Default                     : Yes
    Forced                      : No
    Color range                 : Limited
    Color primaries             : BT.709
    Transfer characteristics    : BT.709
    Matrix coefficients         : BT.709

    Audio #1
    ID                          : 2
    Format                      : E-AC-3
    Format/Info                 : Enhanced AC-3
    Commercial name             : Dolby Digital Plus
    Codec ID                    : A_EAC3
    Duration                    : 30 min 30 s
    Bit rate mode               : Constant
    Bit rate                    : 256 kb/s
    Channel(s)                  : 6 channels
    Channel layout              : L R C LFE Ls Rs
    Sampling rate               : 48.0 kHz
    Frame rate                  : 31.250 FPS (1536 SPF)
    Compression mode            : Lossy
    Stream size                 : 55.9 MiB (3%)
    Title                       : Español Latino [CinemaniaHDD]
    Language                    : Spanish
    Service kind                : Complete Main
    Default                     : Yes
    Forced                      : No

    Audio #2
    ID                          : 3
    Format                      : E-AC-3 JOC
    Format/Info                 : Enhanced AC-3 with Joint Object Coding
    Commercial name             : Dolby Digital Plus with Dolby Atmos
    Codec ID                    : A_EAC3
    Duration                    : 30 min 30 s
    Bit rate mode               : Constant
    Bit rate                    : 768 kb/s
    Channel(s)                  : 6 channels
    Channel layout              : L R C LFE Ls Rs
    Sampling rate               : 48.0 kHz
    Frame rate                  : 31.250 FPS (1536 SPF)
    Compression mode            : Lossy
    Stream size                 : 168 MiB (9%)
    Title                       : Ingles [CinemaniaHDD]
    Language                    : English
    Service kind                : Complete Main
    Default                     : No
    Forced                      : No
    Complexity index            : 16
    Number of dynamic objects   : 15
    Bed channel count           : 1 channel
    Bed channel configuration   : LFE

    Text #1
    ID                          : 4
    Format                      : UTF-8
    Codec ID                    : S_TEXT/UTF8
    Codec ID/Info               : UTF-8 Plain Text
    Duration                    : 28 min 35 s
    Bit rate                    : 1 b/s
    Count of elements           : 12
    Stream size                 : 245 Bytes (0%)
    Title                       : Forzados-SRT [CinemaniaHDD]
    Language                    : Spanish
    Default                     : Yes
    Forced                      : No

    Text #2
    ID                          : 5
    Format                      : UTF-8
    Codec ID                    : S_TEXT/UTF8
    Codec ID/Info               : UTF-8 Plain Text
    Duration                    : 30 min 3 s
    Bit rate                    : 75 b/s
    Count of elements           : 431
    Stream size                 : 16.6 KiB (0%)
    Title                       : Español-SRT [CinemaniaHDD]
    Language                    : Spanish
    Default                     : No
    Forced                      : No

    Text #3
    ID                          : 6
    Format                      : UTF-8
    Codec ID                    : S_TEXT/UTF8
    Codec ID/Info               : UTF-8 Plain Text
    Duration                    : 27 min 4 s
    Bit rate                    : 77 b/s
    Count of elements           : 426
    Stream size                 : 15.4 KiB (0%)
    Title                       : Ingles-SRT [CinemaniaHDD]
    Language                    : English
    Default                     : No
    Forced                      : No

    Menu
    00:00:04.000                : Intro
    00:01:15.000                : Scene 1
    00:05:02.125                : Scene 2
    00:13:42.625                : Scene 3
    00:24:48.958                : Scene 4
    00:28:32.500                : Credits

  • Peso: 1.7 GiB -- 6 Chapters Added

Sinopsis

Descargar X-Men ’97 (2024) Temporada 1 WEB-DL 1080p Latino. «X-Men ’97» vuelve a la icónica época de los años 90, donde los X-Men, un grupo de mutantes que utilizan sus asombrosos poderes para proteger a un mundo que los odia y los teme, se enfrentarán a su mayor desafío y a un nuevo, insospechado y peligroso futuro.

Español Latino – Ingles [EAC3 5.1 D+] 
6 Capítulos Agregados

Ficha técnica

Video trailer de la película

Enlaces de descarga

Rip de Bluray

Descargar X-Men ’97 (2024) Temporada 1 WEB-DL 1080p Latino




Aportes de DPeliculasHDmega la pass es:dpeliculashdmega.org Aportes de CinemaniaHD la pass es:cinemaniahdd.com Aportes recientes:cinemaniahdd.net

Películas relacionadas

descargar X-Men ’97 (2024) Temporada 1 WEB-DL 1080p Latino WEBDL 1080p gratis, X-Men ’97 (2024) Temporada 1 WEB-DL 1080p Latino WEBDL mega 1 link, X-Men ’97 (2024) Temporada 1 WEB-DL 1080p Latino WEBDL serie completa, descargar X-Men ’97 (2024) Temporada 1 WEB-DL 1080p Latino WEBDL gratis en mega.

X-Men ’97 (2024) Temporada 1 WEB-DL 1080p Latino pelicula full hd, X-Men ’97 (2024) Temporada 1 WEB-DL 1080p Latino mega latino, X-Men ’97 (2024) Temporada 1 WEB-DL 1080p Latino 4k latino, X-Men ’97 (2024) Temporada 1 WEB-DL 1080p Latino pelicula completa, X-Men ’97 (2024) Temporada 1 WEB-DL 1080p Latino descargar gratis, descargar X-Men ’97 (2024) Temporada 1 WEB-DL 1080p Latino pelicula latino, X-Men ’97 (2024) Temporada 1 WEB-DL 1080p Latino 1 link mega, X-Men ’97 (2024) Temporada 1 WEB-DL 1080p Latino 1 link google drive, X-Men ’97 (2024) Temporada 1 WEB-DL 1080p Latino hd 1080p latino.
Comentarios 0