×

¿Problemas para descargar con Mozilla, EDGE? Deshabilita la opción "Abrir vinculos en una pestaña nueva" tal como lo muestra ésta imagen.

X-Men (2000) REMUX 1080p Latino

412 vistas

Información de X-Men (2000) REMUX 1080p Latino

Datos de la película

  • Calidad: Full 1080p
  • Audio: Español Latino AC3 5.1 BLURAY - Ingles DTS 5.1 BLURAY
  • Subtitulos: Español Latino PGS - Ingles PGS
  • Resolución: 1920x1080p
  • Formato: MKV
  • Codec: H.264
  • Encoder: CinefiloCool
  • Mediainfo: Clic para Mostrar Datos Ver
  • X-Men (2000) REMUX 1080p Latino-CMHDD.mkv
    Format                      : Matroska
    Format version              : Version 4
    File size                   : 22.9 GiB
    Duration                    : 1 h 44 min
    Overall bit rate mode       : Variable
    Overall bit rate            : 31.4 Mb/s
    Movie name                  : X-Men (2000) CinemaniaHDD.Net
    Encoded date                : UTC 2023-03-04 19:29:17
    Writing application         : mkvmerge v56.1.0 ('My Friend') 64-bit
    Writing library             : libebml v1.4.2 + libmatroska v1.6.4
    Attachments                 : CINEMANIAHD.png

    Video
    ID                          : 1
    Format                      : AVC
    Format/Info                 : Advanced Video Codec
    Format profile              : High@L4.1
    Format settings             : CABAC / 4 Ref Frames
    Format settings, CABAC      : Yes
    Format settings, Reference  : 4 frames
    Codec ID                    : V_MPEG4/ISO/AVC
    Duration                    : 1 h 44 min
    Bit rate mode               : Variable
    Bit rate                    : 28.0 Mb/s
    Maximum bit rate            : 31.7 Mb/s
    Width                       : 1 920 pixels
    Height                      : 1 080 pixels
    Display aspect ratio        : 16:9
    Frame rate mode             : Constant
    Frame rate                  : 23.976 (24000/1001) FPS
    Color space                 : YUV
    Chroma subsampling          : 4:2:0
    Bit depth                   : 8 bits
    Scan type                   : Progressive
    Bits/(Pixel*Frame)          : 0.562
    Stream size                 : 20.4 GiB (89%)
    Title                       : REMUX HD1080p [CinemaniaHDD]
    Default                     : Yes
    Forced                      : Yes
    Color range                 : Limited
    Color primaries             : BT.709
    Transfer characteristics    : BT.709
    Matrix coefficients         : BT.709

    Audio #1
    ID                          : 2
    Format                      : AC-3
    Format/Info                 : Audio Coding 3
    Commercial name             : Dolby Digital
    Codec ID                    : A_AC3
    Duration                    : 1 h 44 min
    Bit rate mode               : Constant
    Bit rate                    : 448 kb/s
    Channel(s)                  : 6 channels
    Channel layout              : L R C LFE Ls Rs
    Sampling rate               : 48.0 kHz
    Frame rate                  : 31.250 FPS (1536 SPF)
    Compression mode            : Lossy
    Stream size                 : 334 MiB (1%)
    Title                       : Español Latino [CinemaniaHDD]
    Language                    : Spanish
    Service kind                : Complete Main
    Default                     : Yes
    Forced                      : Yes

    Audio #2
    ID                          : 3
    Format                      : DTS XBR
    Format/Info                 : Digital Theater Systems
    Commercial name             : DTS-HD High Resolution Audio
    Codec ID                    : A_DTS
    Duration                    : 1 h 44 min
    Bit rate mode               : Constant
    Bit rate                    : 3 018 kb/s
    Channel(s)                  : 6 channels
    Channel layout              : C L R Ls Rs LFE
    Sampling rate               : 48.0 kHz
    Frame rate                  : 93.750 FPS (512 SPF)
    Bit depth                   : 24 bits
    Compression mode            : Lossy
    Stream size                 : 2.20 GiB (10%)
    Title                       : Ingles [CinemaniaHDD]
    Language                    : English
    Default                     : No
    Forced                      : No

    Text #1
    ID                          : 4
    Format                      : PGS
    Muxing mode                 : zlib
    Codec ID                    : S_HDMV/PGS
    Codec ID/Info               : Picture based subtitle format used on BDs/HD-DVDs
    Duration                    : 22 min 0 s
    Bit rate                    : 283 b/s
    Count of elements           : 4
    Stream size                 : 45.7 KiB (0%)
    Title                       : Forzados-PGS [CinemaniaHDD]
    Language                    : Spanish
    Default                     : No
    Forced                      : No

    Text #2
    ID                          : 5
    Format                      : PGS
    Muxing mode                 : zlib
    Codec ID                    : S_HDMV/PGS
    Codec ID/Info               : Picture based subtitle format used on BDs/HD-DVDs
    Duration                    : 1 h 34 min
    Bit rate                    : 31.3 kb/s
    Count of elements           : 1451
    Stream size                 : 21.1 MiB (0%)
    Title                       : Español-PGS [CinemaniaHDD]
    Language                    : Spanish
    Default                     : No
    Forced                      : No

    Text #3
    ID                          : 6
    Format                      : PGS
    Muxing mode                 : zlib
    Codec ID                    : S_HDMV/PGS
    Codec ID/Info               : Picture based subtitle format used on BDs/HD-DVDs
    Duration                    : 1 h 34 min
    Bit rate                    : 21.6 kb/s
    Count of elements           : 1256
    Stream size                 : 14.6 MiB (0%)
    Title                       : Ingles [CinemaniaHDD]
    Language                    : English
    Default                     : No
    Forced                      : No

    Text #4
    ID                          : 7
    Format                      : UTF-8
    Codec ID                    : S_TEXT/UTF8
    Codec ID/Info               : UTF-8 Plain Text
    Duration                    : 22 min 0 s
    Bit rate                    : 0 b/s
    Count of elements           : 2
    Stream size                 : 36.0 Bytes (0%)
    Title                       : Forzados-SRT [CinemaniaHDD]
    Language                    : Spanish
    Default                     : Yes
    Forced                      : Yes

    Text #5
    ID                          : 8
    Format                      : UTF-8
    Codec ID                    : S_TEXT/UTF8
    Codec ID/Info               : UTF-8 Plain Text
    Duration                    : 1 h 34 min
    Bit rate                    : 34 b/s
    Count of elements           : 726
    Stream size                 : 23.5 KiB (0%)
    Title                       : Español-SRT [CinemaniaHDD]
    Language                    : Spanish
    Default                     : No
    Forced                      : No

    Menu
    00:00:00.000                : :Chapter 01
    00:01:19.288                : :Chapter 02
    00:04:18.133                : :Chapter 03
    00:05:56.022                : :Chapter 04
    00:07:56.059                : :Chapter 05
    00:09:23.688                : :Chapter 06
    00:11:37.697                : :Chapter 07
    00:14:38.503                : :Chapter 08
    00:18:01.664                : :Chapter 09
    00:20:49.665                : :Chapter 10
    00:22:09.119                : :Chapter 11
    00:23:58.646                : :Chapter 12
    00:28:45.849                : :Chapter 13
    00:29:55.168                : :Chapter 14
    00:32:06.508                : :Chapter 15
    00:33:37.682                : :Chapter 16
    00:36:37.237                : :Chapter 17
    00:38:25.178                : :Chapter 18
    00:41:11.886                : :Chapter 19
    00:44:13.860                : :Chapter 20
    00:45:50.456                : :Chapter 21
    00:48:41.544                : :Chapter 22
    00:50:22.436                : :Chapter 23
    00:52:05.831                : :Chapter 24
    00:54:58.212                : :Chapter 25
    00:58:11.154                : :Chapter 26
    00:59:19.765                : :Chapter 27
    01:01:54.961                : :Chapter 28
    01:03:17.627                : :Chapter 29
    01:06:02.375                : :Chapter 30
    01:08:39.782                : :Chapter 31
    01:12:21.379                : :Chapter 32
    01:18:03.804                : :Chapter 33
    01:20:53.223                : :Chapter 34
    01:24:28.063                : :Chapter 35
    01:26:58.422                : :Chapter 36
    01:29:08.510                : :Chapter 37
    01:31:47.210                : :Chapter 38
    01:33:12.879                : :Chapter 39
    01:35:12.123                : :Chapter 40

  • Peso: 22.9 GiB

Sinopsis

Descargar X-Men (2000) REMUX 1080p Latino. En un futuro cercano, la humanidad comienza a ver aparecer una nueva raza; los mutantes. Dotados de extraños y variados poderes, están agrupados en dos bandos: los que abogan por la integración y el entendimiento con la humanidad, encabezados por el doctor Charles Xavier, y los que buscan el enfrentamiento con una raza que consideran inferior y que les odia, dirigidos por Magnus, alias Magneto, un peligroso mutante con extraordinarios poderes.

Ficha técnica

Video trailer de la película

Enlaces de descarga

Rip de Bluray

Descargar X-Men (2000) REMUX 1080p Latino


Aportes de DPeliculasHDmega la pass es:dpeliculashdmega.org Aportes de CinemaniaHD la pass es:cinemaniahdd.com Aportes recientes:cinemaniahdd.net
Guardado en : Acción , Aventura , Ciencia ficción , Remux
Etiquetado en :

Películas relacionadas

descargar X-Men (2000) REMUX 1080p Latino Full 1080p 1080p gratis, X-Men (2000) REMUX 1080p Latino Full 1080p mega 1 link, X-Men (2000) REMUX 1080p Latino Full 1080p pelicula completa, descargar X-Men (2000) REMUX 1080p Latino Full 1080p gratis en mega.

X-Men (2000) REMUX 1080p Latino pelicula full hd, X-Men (2000) REMUX 1080p Latino mega latino, X-Men (2000) REMUX 1080p Latino 4k latino, X-Men (2000) REMUX 1080p Latino pelicula completa, X-Men (2000) REMUX 1080p Latino descargar gratis, descargar X-Men (2000) REMUX 1080p Latino pelicula latino, X-Men (2000) REMUX 1080p Latino 1 link mega, X-Men (2000) REMUX 1080p Latino 1 link google drive, X-Men (2000) REMUX 1080p Latino hd 1080p latino.
Comentarios 0