×

¿Problemas para descargar con Mozilla, EDGE? Deshabilita la opción "Abrir vinculos en una pestaña nueva" tal como lo muestra ésta imagen.

Camino Hacia el Terror 6: La Herencia (2014) UNRATED REMUX 1080p Latino-CMHDD

137 vistas

Información de Camino Hacia el Terror 6: La Herencia (2014) UNRATED REMUX 1080p Latino-CMHDD

Datos de la película

  • Calidad: Full 1080p
  • Audio: Español Latino AC3 5.1 WEB-DL - Ingles DTS 5.1 BLURAY
  • Subtitulos: Español Latino PGS - Ingles PGS
  • Resolución: 1920x1080p
  • Formato: MKV
  • Codec: H.264
  • Encoder: CinefiloCool
  • Mediainfo: Clic para Mostrar Datos Ver
  • Camino Hacia el Terror 6 La Herencia (2014) UNR REMUX 1080p Latino-CMHDD.mkv
    Format                      : Matroska
    Format version              : Version 4
    File size                   : 23.5 GiB
    Duration                    : 1 h 30 min
    Overall bit rate mode       : Variable
    Overall bit rate            : 37.2 Mb/s
    Movie name                  : Wrong Turn 6. Last Resort (2014) CinemaniaHDD.Net
    Encoded date                : UTC 2023-10-12 22:23:20
    Writing application         : mkvmerge v56.1.0 ('My Friend') 64-bit
    Writing library             : libebml v1.4.2 + libmatroska v1.6.4
    Attachments                 : CINEMANIAHD.png

    Video
    ID                          : 1
    ID in the original source m : 4113 (0x1011)
    Format                      : AVC
    Format/Info                 : Advanced Video Codec
    Format profile              : High@L4.1
    Format settings             : CABAC / 2 Ref Frames
    Format settings, CABAC      : Yes
    Format settings, Reference  : 2 frames
    Codec ID                    : V_MPEG4/ISO/AVC
    Duration                    : 1 h 30 min
    Bit rate mode               : Variable
    Bit rate                    : 33.2 Mb/s
    Width                       : 1 920 pixels
    Height                      : 1 080 pixels
    Display aspect ratio        : 16:9
    Frame rate mode             : Constant
    Frame rate                  : 23.976 (24000/1001) FPS
    Color space                 : YUV
    Chroma subsampling          : 4:2:0
    Bit depth                   : 8 bits
    Scan type                   : Progressive
    Bits/(Pixel*Frame)          : 0.668
    Stream size                 : 21.0 GiB (89%)
    Title                       : REMUX HD1080p [CinemaniaHDD]
    Default                     : Yes
    Forced                      : Yes
    Original source medium      : Blu-ray

    Audio #1
    ID                          : 2
    Format                      : AC-3
    Format/Info                 : Audio Coding 3
    Commercial name             : Dolby Digital
    Codec ID                    : A_AC3
    Duration                    : 1 h 30 min
    Bit rate mode               : Constant
    Bit rate                    : 384 kb/s
    Channel(s)                  : 6 channels
    Channel layout              : L R C LFE Ls Rs
    Sampling rate               : 48.0 kHz
    Frame rate                  : 31.250 FPS (1536 SPF)
    Compression mode            : Lossy
    Stream size                 : 249 MiB (1%)
    Title                       : Español Latino [CinemaniaHDD]
    Language                    : Spanish
    Service kind                : Complete Main
    Default                     : Yes
    Forced                      : Yes

    Audio #2
    ID                          : 3
    ID in the original source m : 4352 (0x1100)
    Format                      : DTS XLL
    Format/Info                 : Digital Theater Systems
    Commercial name             : DTS-HD Master Audio
    Codec ID                    : A_DTS
    Duration                    : 1 h 30 min
    Bit rate mode               : Variable
    Bit rate                    : 3 591 kb/s
    Channel(s)                  : 6 channels
    Channel layout              : C L R Ls Rs LFE
    Sampling rate               : 48.0 kHz
    Frame rate                  : 93.750 FPS (512 SPF)
    Bit depth                   : 24 bits
    Compression mode            : Lossless
    Stream size                 : 2.27 GiB (10%)
    Title                       : Ingles [CinemaniaHDD]
    Language                    : English
    Default                     : No
    Forced                      : No
    Original source medium      : Blu-ray

    Text #1
    ID                          : 4
    ID in the original source m : 4609 (0x1201)
    Format                      : PGS
    Muxing mode                 : zlib
    Codec ID                    : S_HDMV/PGS
    Codec ID/Info               : Picture based subtitle format used on BDs/HD-DVDs
    Duration                    : 1 h 29 min
    Bit rate                    : 26.3 kb/s
    Count of elements           : 1724
    Stream size                 : 16.9 MiB (0%)
    Title                       : Español-PGS [CinemaniaHDD]
    Language                    : Spanish
    Default                     : No
    Forced                      : No
    Original source medium      : Blu-ray

    Text #2
    ID                          : 5
    ID in the original source m : 4608 (0x1200)
    Format                      : PGS
    Muxing mode                 : zlib
    Codec ID                    : S_HDMV/PGS
    Codec ID/Info               : Picture based subtitle format used on BDs/HD-DVDs
    Duration                    : 1 h 29 min
    Bit rate                    : 31.6 kb/s
    Count of elements           : 1996
    Stream size                 : 20.3 MiB (0%)
    Title                       : Ingles [CinemaniaHDD]
    Language                    : English
    Default                     : No
    Forced                      : No
    Original source medium      : Blu-ray

    Text #3
    ID                          : 6
    Format                      : UTF-8
    Codec ID                    : S_TEXT/UTF8
    Codec ID/Info               : UTF-8 Plain Text
    Duration                    : 1 h 29 min
    Bit rate                    : 0 b/s
    Count of elements           : 13
    Stream size                 : 402 Bytes (0%)
    Title                       : Forzados-SRT [CinemaniaHDD]
    Language                    : Spanish
    Default                     : Yes
    Forced                      : Yes

    Text #4
    ID                          : 7
    Format                      : UTF-8
    Codec ID                    : S_TEXT/UTF8
    Codec ID/Info               : UTF-8 Plain Text
    Duration                    : 1 h 29 min
    Bit rate                    : 40 b/s
    Count of elements           : 865
    Stream size                 : 26.6 KiB (0%)
    Title                       : Español-SRT [CinemaniaHDD]
    Language                    : Spanish
    Default                     : No
    Forced                      : No

    Menu
    00:00:00.000                : Chapter 01
    00:04:51.666                : Chapter 02
    00:08:46.567                : Chapter 03
    00:12:18.195                : Chapter 04
    00:13:59.839                : Chapter 05
    00:15:56.163                : Chapter 06
    00:17:37.848                : Chapter 07
    00:20:10.334                : Chapter 08
    00:23:33.245                : Chapter 09
    00:27:01.161                : Chapter 10
    00:29:46.868                : Chapter 11
    00:34:01.289                : Chapter 12
    00:36:03.911                : Chapter 13
    00:41:20.102                : Chapter 14
    00:43:54.089                : Chapter 15
    00:47:40.232                : Chapter 16
    00:53:11.271                : Chapter 17
    00:56:45.026                : Chapter 18
    01:00:17.280                : Chapter 19
    01:05:47.276                : Chapter 20
    01:07:31.464                : Chapter 21
    01:09:44.346                : Chapter 22
    01:12:59.750                : Chapter 23
    01:15:09.087                : Chapter 24
    01:17:32.147                : Chapter 25
    01:20:38.458                : Chapter 26
    01:23:17.993                : Chapter 27
    01:26:34.189                : Chapter 28

  • Peso: 23.5 GiB

Sinopsis

Descargar Camino Hacia el Terror 6: La Herencia (2014) UNRATED REMUX 1080p Latino-CMHDD. Una herencia repentina y misteriosa trae Danny y sus amigos para Hobb Springs, una localidad olvidada profundo en las colinas de Virginia Occidental. Hobb Springs está siendo cuidada bajo la estricta vigilancia de Jackson y Sally, una pareja y socialmente torpe que introducir Danny a la familia perdida hace mucho tiempo que nunca ha conocido. Pronto, Danny se ve obligado a elegir entre sus amigos y su linaje.

Ficha técnica

Video trailer de la película

Enlaces de descarga

Rip de Bluray

Descargar Camino Hacia el Terror 6: La Herencia (2014) UNRATED REMUX 1080p Latino-CMHDD


Aportes de DPeliculasHDmega la pass es:dpeliculashdmega.org Aportes de CinemaniaHD la pass es:cinemaniahdd.com Aportes recientes:cinemaniahdd.net
Guardado en : Remux , Terror
Etiquetado en :

Películas relacionadas

  • La La Land (2016) REMUX 1080p Latino – CMHDD

    La La Land (2016) REMUX 1080p Latino – CMHDD

    2016
    La La Land (2016) REMUX 1080p Latino – CMHDD

    2h 8m 2016

    Mia (Emma Stone), una joven aspirante a actriz que trabaja como camarera mientras acude a castings, y...

    Director: Peter Kohn

    Género: Comedia

    Actores: Zoë Hall

  • El Fin de Los Tiempos (2008) REMUX 1080p Latino-CMHDD

    El Fin de Los Tiempos (2008) REMUX 1080p Latino-CMHDD

    2008
    El Fin de Los Tiempos (2008) REMUX 1080p Latino-CMHDD

    1h 30m 2008

    Descargar El Fin de Los Tiempos (2008) REMUX 1080p Latino-CMHDD. En unos minutos, en las principales...

    Director: M. Night Shyamalan

    Género: Ciencia ficción

    Actores: Zooey Deschanel

  • Victor Frankenstein (2015) REMUX 1080p Latino-CMHDD

    Victor Frankenstein (2015) REMUX 1080p Latino-CMHDD

    2015
    Victor Frankenstein (2015) REMUX 1080p Latino-CMHDD

    1h 50m 2015

    Descargar Victor Frankenstein (2015) REMUX 1080p Latino-CMHDD. En los ambiciosos planes del doctor para...

    Director: Toby Ford

    Género: Ciencia ficción

    Actores: Will Keen

  • Loco Por Ella (2010) REMUX 1080p Latino-CMHDD

    Loco Por Ella (2010) REMUX 1080p Latino-CMHDD

    2010
    Loco Por Ella (2010) REMUX 1080p Latino-CMHDD

    1h 39m 2010

    Descargar Loco Por Ella (2010) REMUX 1080p Latino-CMHDD. Cuando Kassie (Jennifer Aniston) cumple los...

    Director: Will Speck

    Género: Comedia

    Actores: Will Swenson

descargar Camino Hacia el Terror 6: La Herencia (2014) UNRATED REMUX 1080p Latino-CMHDD Full 1080p 1080p gratis, Camino Hacia el Terror 6: La Herencia (2014) UNRATED REMUX 1080p Latino-CMHDD Full 1080p mega 1 link, Camino Hacia el Terror 6: La Herencia (2014) UNRATED REMUX 1080p Latino-CMHDD Full 1080p pelicula completa, descargar Camino Hacia el Terror 6: La Herencia (2014) UNRATED REMUX 1080p Latino-CMHDD Full 1080p gratis en mega.

Camino Hacia el Terror 6: La Herencia (2014) UNRATED REMUX 1080p Latino-CMHDD pelicula full hd, Camino Hacia el Terror 6: La Herencia (2014) UNRATED REMUX 1080p Latino-CMHDD mega latino, Camino Hacia el Terror 6: La Herencia (2014) UNRATED REMUX 1080p Latino-CMHDD 4k latino, Camino Hacia el Terror 6: La Herencia (2014) UNRATED REMUX 1080p Latino-CMHDD pelicula completa, Camino Hacia el Terror 6: La Herencia (2014) UNRATED REMUX 1080p Latino-CMHDD descargar gratis, descargar Camino Hacia el Terror 6: La Herencia (2014) UNRATED REMUX 1080p Latino-CMHDD pelicula latino, Camino Hacia el Terror 6: La Herencia (2014) UNRATED REMUX 1080p Latino-CMHDD 1 link mega, Camino Hacia el Terror 6: La Herencia (2014) UNRATED REMUX 1080p Latino-CMHDD 1 link google drive, Camino Hacia el Terror 6: La Herencia (2014) UNRATED REMUX 1080p Latino-CMHDD hd 1080p latino.
Comentarios 0