×

¿Problemas para descargar con Mozilla, EDGE? Deshabilita la opción "Abrir vinculos en una pestaña nueva" tal como lo muestra ésta imagen.

Camino hacia el terror 5: El linaje caníbal (2012) UNRATED REMUX 1080p Latino-CMHDD

127 vistas

Información de Camino hacia el terror 5: El linaje caníbal (2012) UNRATED REMUX 1080p Latino-CMHDD

Datos de la película

  • Calidad: Full 1080p
  • Audio: Español Latino AC3 5.1 DVD - Ingles DTS 5.1 BLURAY
  • Subtitulos: Español Latino PGS - Ingles PGS
  • Resolución: 1920x1080p
  • Formato: MKV
  • Codec: H.264
  • Encoder: CinefiloCool
  • Mediainfo: Clic para Mostrar Datos Ver
  • Camino Hacia El Terror 5 Linaje Canibal (2012) UNR REMUX 1080p Latino-CMHDD.mkv
    Format                      : Matroska
    Format version              : Version 4
    File size                   : 24.1 GiB
    Duration                    : 1 h 30 min
    Overall bit rate mode       : Variable
    Overall bit rate            : 38.1 Mb/s
    Movie name                  : Wrong Turn 5. Bloodlines (2012) CinemaniaHDD.Net
    Encoded date                : UTC 2023-10-12 21:05:51
    Writing application         : mkvmerge v56.1.0 ('My Friend') 64-bit
    Writing library             : libebml v1.4.2 + libmatroska v1.6.4
    Attachments                 : CINEMANIAHD.png

    Video
    ID                          : 1
    ID in the original source m : 4113 (0x1011)
    Format                      : AVC
    Format/Info                 : Advanced Video Codec
    Format profile              : High@L4.1
    Format settings             : CABAC / 2 Ref Frames
    Format settings, CABAC      : Yes
    Format settings, Reference  : 2 frames
    Codec ID                    : V_MPEG4/ISO/AVC
    Duration                    : 1 h 30 min
    Bit rate mode               : Variable
    Bit rate                    : 34.1 Mb/s
    Width                       : 1 920 pixels
    Height                      : 1 080 pixels
    Display aspect ratio        : 16:9
    Frame rate mode             : Constant
    Frame rate                  : 23.976 (24000/1001) FPS
    Color space                 : YUV
    Chroma subsampling          : 4:2:0
    Bit depth                   : 8 bits
    Scan type                   : Progressive
    Bits/(Pixel*Frame)          : 0.686
    Stream size                 : 21.6 GiB (90%)
    Title                       : REMUX HD1080p [CinemaniaHDD]
    Default                     : Yes
    Forced                      : Yes
    Original source medium      : Blu-ray

    Audio #1
    ID                          : 2
    Format                      : AC-3
    Format/Info                 : Audio Coding 3
    Commercial name             : Dolby Digital
    Codec ID                    : A_AC3
    Duration                    : 1 h 30 min
    Bit rate mode               : Constant
    Bit rate                    : 384 kb/s
    Channel(s)                  : 6 channels
    Channel layout              : L R C LFE Ls Rs
    Sampling rate               : 48.0 kHz
    Frame rate                  : 31.250 FPS (1536 SPF)
    Compression mode            : Lossy
    Stream size                 : 249 MiB (1%)
    Title                       : Español Latino [CinemaniaHDD]
    Language                    : Spanish
    Service kind                : Complete Main
    Default                     : Yes
    Forced                      : Yes

    Audio #2
    ID                          : 3
    ID in the original source m : 4352 (0x1100)
    Format                      : DTS XLL
    Format/Info                 : Digital Theater Systems
    Commercial name             : DTS-HD Master Audio
    Codec ID                    : A_DTS
    Duration                    : 1 h 30 min
    Bit rate mode               : Variable
    Bit rate                    : 3 538 kb/s
    Channel(s)                  : 6 channels
    Channel layout              : C L R Ls Rs LFE
    Sampling rate               : 48.0 kHz
    Frame rate                  : 93.750 FPS (512 SPF)
    Bit depth                   : 24 bits
    Compression mode            : Lossless
    Stream size                 : 2.24 GiB (9%)
    Title                       : Ingles [CinemaniaHDD]
    Language                    : English
    Default                     : No
    Forced                      : No
    Original source medium      : Blu-ray

    Text #1
    ID                          : 4
    ID in the original source m : 4609 (0x1201)
    Format                      : PGS
    Muxing mode                 : zlib
    Codec ID                    : S_HDMV/PGS
    Codec ID/Info               : Picture based subtitle format used on BDs/HD-DVDs
    Duration                    : 1 h 30 min
    Bit rate                    : 22.7 kb/s
    Count of elements           : 2044
    Stream size                 : 14.6 MiB (0%)
    Title                       : Español-PGS [CinemaniaHDD]
    Language                    : Spanish
    Default                     : No
    Forced                      : No
    Original source medium      : Blu-ray

    Text #2
    ID                          : 5
    ID in the original source m : 4608 (0x1200)
    Format                      : PGS
    Muxing mode                 : zlib
    Codec ID                    : S_HDMV/PGS
    Codec ID/Info               : Picture based subtitle format used on BDs/HD-DVDs
    Duration                    : 1 h 30 min
    Bit rate                    : 31.4 kb/s
    Count of elements           : 2568
    Stream size                 : 20.2 MiB (0%)
    Title                       : Ingles [CinemaniaHDD]
    Language                    : English
    Default                     : No
    Forced                      : No
    Original source medium      : Blu-ray

    Text #3
    ID                          : 6
    Format                      : UTF-8
    Codec ID                    : S_TEXT/UTF8
    Codec ID/Info               : UTF-8 Plain Text
    Duration                    : 1 h 11 min
    Bit rate                    : 0 b/s
    Count of elements           : 10
    Stream size                 : 367 Bytes (0%)
    Title                       : Forzados-SRT [CinemaniaHDD]
    Language                    : Spanish
    Default                     : Yes
    Forced                      : Yes

    Text #4
    ID                          : 7
    Format                      : UTF-8
    Codec ID                    : S_TEXT/UTF8
    Codec ID/Info               : UTF-8 Plain Text
    Duration                    : 1 h 26 min
    Bit rate                    : 44 b/s
    Count of elements           : 1020
    Stream size                 : 28.1 KiB (0%)
    Title                       : Español-SRT [CinemaniaHDD]
    Language                    : Spanish
    Default                     : No
    Forced                      : No

    Menu
    00:00:00.000                : Chapter 01
    00:03:35.006                : Chapter 02
    00:06:41.109                : Chapter 03
    00:09:45.293                : Chapter 04
    00:13:38.526                : Chapter 05
    00:16:56.473                : Chapter 06
    00:18:38.909                : Chapter 07
    00:22:32.893                : Chapter 08
    00:26:03.436                : Chapter 09
    00:29:27.223                : Chapter 10
    00:34:49.837                : Chapter 11
    00:39:19.440                : Chapter 12
    00:44:08.646                : Chapter 13
    00:48:06.216                : Chapter 14
    00:53:11.813                : Chapter 15
    00:59:35.196                : Chapter 16
    01:03:13.122                : Chapter 17
    01:06:56.303                : Chapter 18
    01:09:44.638                : Chapter 19
    01:12:32.639                : Chapter 20
    01:17:43.700                : Chapter 21
    01:19:31.767                : Chapter 22
    01:20:46.842                : Chapter 23
    01:26:21.801                : Chapter 24

  • Peso: 24.1 GiB

Sinopsis

Descargar Camino hacia el terror 5: El linaje caníbal (2012) UNRATED REMUX 1080p Latino-CMHDD. En una pequeña ciudad de Virginia Occidental, tiene lugar el Mountain Man Festival el día de Halloween, donde una multitud de excursionistas acuden a la fiesta, disfrazados y listos para pasar una noche salvaje con música y diversión. Pero una familia endogámica de caníbales les aguará la fiesta. Quinta entrega de la saga KM 666

Ficha técnica

Video trailer de la película

Enlaces de descarga

Rip de Bluray

Descargar Camino hacia el terror 5: El linaje caníbal (2012) UNRATED REMUX 1080p Latino-CMHDD


Aportes de DPeliculasHDmega la pass es:dpeliculashdmega.org Aportes de CinemaniaHD la pass es:cinemaniahdd.com Aportes recientes:cinemaniahdd.net
Guardado en : Remux , Suspenso , Terror
Etiquetado en :

Películas relacionadas

  • iZombie (2016) Temporada 02 REMUX 1080p Latino

    iZombie (2016) Temporada 02 REMUX 1080p Latino

    2015
    iZombie (2016) Temporada 02 REMUX 1080p Latino

    0h 42m 2015

    Descargar iZombie (2016) Temporada 02 REMUX 1080p Latino. Gira en torno a una estudiante de medicina...

    Director: Rob Thomas

    Género: Crimen

    Actores: Rose McIver

  • iZombie (2015) Temporada 01 REMUX 1080p Latino

    iZombie (2015) Temporada 01 REMUX 1080p Latino

    2015
    iZombie (2015) Temporada 01 REMUX 1080p Latino

    0h 42m 2015

    Descargar iZombie (2015) Temporada 01 REMUX 1080p Latino. Gira en torno a una estudiante de medicina...

    Director: Rob Thomas

    Género: Crimen

    Actores: Rose McIver

  • Fear (2023) AMZN WEB-DL 1080p Latino

    Fear (2023) AMZN WEB-DL 1080p Latino

    2023
    Fear (2023) AMZN WEB-DL 1080p Latino

    1h 38m 2023

    Una escapada muy necesaria y un fin de semana de celebración se convierte en una pesadilla debido a...

    Director: Deon Taylor

    Género: Drama

    Actores: Whylip Lee

  • Good Burger 2 (2023) REMUX 1080p Latino

    Good Burger 2 (2023) REMUX 1080p Latino

    2023
    Good Burger 2 (2023) REMUX 1080p Latino

    1h 31m 2023

    Descargar Good Burger 2 (2023) REMUX 1080p Latino. Después de que su último invento falla, Ed le da...

    Director: Ross Novie

    Género: Comedia

    Actores: Zoe Saldana

descargar Camino hacia el terror 5: El linaje caníbal (2012) UNRATED REMUX 1080p Latino-CMHDD Full 1080p 1080p gratis, Camino hacia el terror 5: El linaje caníbal (2012) UNRATED REMUX 1080p Latino-CMHDD Full 1080p mega 1 link, Camino hacia el terror 5: El linaje caníbal (2012) UNRATED REMUX 1080p Latino-CMHDD Full 1080p pelicula completa, descargar Camino hacia el terror 5: El linaje caníbal (2012) UNRATED REMUX 1080p Latino-CMHDD Full 1080p gratis en mega.

Camino hacia el terror 5: El linaje caníbal (2012) UNRATED REMUX 1080p Latino-CMHDD pelicula full hd, Camino hacia el terror 5: El linaje caníbal (2012) UNRATED REMUX 1080p Latino-CMHDD mega latino, Camino hacia el terror 5: El linaje caníbal (2012) UNRATED REMUX 1080p Latino-CMHDD 4k latino, Camino hacia el terror 5: El linaje caníbal (2012) UNRATED REMUX 1080p Latino-CMHDD pelicula completa, Camino hacia el terror 5: El linaje caníbal (2012) UNRATED REMUX 1080p Latino-CMHDD descargar gratis, descargar Camino hacia el terror 5: El linaje caníbal (2012) UNRATED REMUX 1080p Latino-CMHDD pelicula latino, Camino hacia el terror 5: El linaje caníbal (2012) UNRATED REMUX 1080p Latino-CMHDD 1 link mega, Camino hacia el terror 5: El linaje caníbal (2012) UNRATED REMUX 1080p Latino-CMHDD 1 link google drive, Camino hacia el terror 5: El linaje caníbal (2012) UNRATED REMUX 1080p Latino-CMHDD hd 1080p latino.
Comentarios 0