×

¿Problemas para descargar con Mozilla, EDGE? Deshabilita la opción "Abrir vinculos en una pestaña nueva" tal como lo muestra ésta imagen.

Camino Hacia el Terror 4: Inicio Sangriento (2011) UNRATED REMUX 1080p Latino-CMHDD

134 vistas

Información de Camino Hacia el Terror 4: Inicio Sangriento (2011) UNRATED REMUX 1080p Latino-CMHDD

Datos de la película

  • Calidad: Full 1080p
  • Audio: Español Latino AC3 5.1 DVD - Ingles DTS 5.1 BLURAY
  • Subtitulos: Español Latino PGS - Ingles PGS
  • Resolución: 1920x1080p
  • Formato: MKV
  • Codec: H.264
  • Encoder: CinefiloCool
  • Mediainfo: Clic para Mostrar Datos Ver
  • Camino Hacia El Terror 4 Inicio Sangriento (2011) UNR REMUX 1080p Latino-CMHDD.mkv
    Format                      : Matroska
    Format version              : Version 4
    File size                   : 15.3 GiB
    Duration                    : 1 h 33 min
    Overall bit rate mode       : Variable
    Overall bit rate            : 23.4 Mb/s
    Movie name                  : Wrong Turn 4. Bloody Beginnings (2011) CinemaniaHDD.Net
    Encoded date                : UTC 2023-10-12 03:39:51
    Writing application         : mkvmerge v56.1.0 ('My Friend') 64-bit
    Writing library             : libebml v1.4.2 + libmatroska v1.6.4
    Attachments                 : CINEMANIAHD.png

    Video
    ID                          : 1
    ID in the original source m : 4113 (0x1011)
    Format                      : AVC
    Format/Info                 : Advanced Video Codec
    Format profile              : High@L4.1
    Format settings             : CABAC / 2 Ref Frames
    Format settings, CABAC      : Yes
    Format settings, Reference  : 2 frames
    Codec ID                    : V_MPEG4/ISO/AVC
    Duration                    : 1 h 33 min
    Bit rate                    : 19.5 Mb/s
    Width                       : 1 920 pixels
    Height                      : 1 080 pixels
    Display aspect ratio        : 16:9
    Frame rate mode             : Constant
    Frame rate                  : 23.976 (24000/1001) FPS
    Color space                 : YUV
    Chroma subsampling          : 4:2:0
    Bit depth                   : 8 bits
    Scan type                   : Progressive
    Bits/(Pixel*Frame)          : 0.392
    Stream size                 : 12.7 GiB (83%)
    Title                       : REMUX HD1080p [CinemaniaHDD]
    Default                     : Yes
    Forced                      : Yes
    Original source medium      : Blu-ray

    Audio #1
    ID                          : 2
    Format                      : AC-3
    Format/Info                 : Audio Coding 3
    Commercial name             : Dolby Digital
    Codec ID                    : A_AC3
    Duration                    : 1 h 33 min
    Bit rate mode               : Constant
    Bit rate                    : 384 kb/s
    Channel(s)                  : 6 channels
    Channel layout              : L R C LFE Ls Rs
    Sampling rate               : 48.0 kHz
    Frame rate                  : 31.250 FPS (1536 SPF)
    Compression mode            : Lossy
    Stream size                 : 256 MiB (2%)
    Title                       : Español Latino [CinemaniaHDD]
    Language                    : Spanish
    Service kind                : Complete Main
    Default                     : Yes
    Forced                      : Yes

    Audio #2
    ID                          : 3
    ID in the original source m : 4352 (0x1100)
    Format                      : DTS XLL
    Format/Info                 : Digital Theater Systems
    Commercial name             : DTS-HD Master Audio
    Codec ID                    : A_DTS
    Duration                    : 1 h 33 min
    Bit rate mode               : Variable
    Bit rate                    : 3 552 kb/s
    Channel(s)                  : 6 channels
    Channel layout              : C L R Ls Rs LFE
    Sampling rate               : 48.0 kHz
    Frame rate                  : 93.750 FPS (512 SPF)
    Bit depth                   : 24 bits
    Compression mode            : Lossless
    Delay relative to video     : 2 ms
    Stream size                 : 2.32 GiB (15%)
    Title                       : Ingles [CinemaniaHDD]
    Language                    : English
    Default                     : No
    Forced                      : No
    Original source medium      : Blu-ray

    Text #1
    ID                          : 4
    ID in the original source m : 4609 (0x1201)
    Format                      : PGS
    Muxing mode                 : zlib
    Codec ID                    : S_HDMV/PGS
    Codec ID/Info               : Picture based subtitle format used on BDs/HD-DVDs
    Duration                    : 1 h 32 min
    Bit rate                    : 39.3 kb/s
    Count of elements           : 1776
    Stream size                 : 26.1 MiB (0%)
    Title                       : Español-PGS [CinemaniaHDD]
    Language                    : Spanish
    Default                     : No
    Forced                      : No
    Original source medium      : Blu-ray

    Text #2
    ID                          : 5
    ID in the original source m : 4608 (0x1200)
    Format                      : PGS
    Muxing mode                 : zlib
    Codec ID                    : S_HDMV/PGS
    Codec ID/Info               : Picture based subtitle format used on BDs/HD-DVDs
    Duration                    : 1 h 32 min
    Bit rate                    : 60.1 kb/s
    Count of elements           : 2671
    Stream size                 : 39.9 MiB (0%)
    Title                       : Ingles [CinemaniaHDD]
    Language                    : English
    Default                     : No
    Forced                      : No
    Original source medium      : Blu-ray

    Text #3
    ID                          : 6
    Format                      : UTF-8
    Codec ID                    : S_TEXT/UTF8
    Codec ID/Info               : UTF-8 Plain Text
    Duration                    : 34 min 48 s
    Bit rate                    : 0 b/s
    Count of elements           : 8
    Stream size                 : 209 Bytes (0%)
    Title                       : Forzados-SRT [CinemaniaHDD]
    Language                    : Spanish
    Default                     : Yes
    Forced                      : Yes

    Text #4
    ID                          : 7
    Format                      : UTF-8
    Codec ID                    : S_TEXT/UTF8
    Codec ID/Info               : UTF-8 Plain Text
    Duration                    : 1 h 28 min
    Bit rate                    : 40 b/s
    Count of elements           : 887
    Stream size                 : 26.0 KiB (0%)
    Title                       : Español-SRT [CinemaniaHDD]
    Language                    : Spanish
    Default                     : No
    Forced                      : No

    Menu
    00:00:00.000                : Chapter 01
    00:06:21.756                : Chapter 02
    00:09:13.928                : Chapter 03
    00:11:10.294                : Chapter 04
    00:17:52.946                : Chapter 05
    00:23:18.688                : Chapter 06
    00:26:27.335                : Chapter 07
    00:33:11.948                : Chapter 08
    00:36:33.649                : Chapter 09
    00:40:08.447                : Chapter 10
    00:45:19.216                : Chapter 11
    00:47:11.495                : Chapter 12
    00:49:34.804                : Chapter 13
    00:53:55.773                : Chapter 14
    00:55:52.974                : Chapter 15
    01:00:55.484                : Chapter 16
    01:04:33.118                : Chapter 17
    01:07:03.519                : Chapter 18
    01:10:21.175                : Chapter 19
    01:13:02.335                : Chapter 20
    01:17:04.828                : Chapter 21
    01:22:08.131                : Chapter 22
    01:27:02.842                : Chapter 23
    01:30:17.912                : Chapter 24

  • Peso: 15.3 GiB

Sinopsis

Descargar Camino Hacia el Terror 4: Inicio Sangriento (2011) UNRATED REMUX 1080p Latino-CMHDD. Precuela de la original «Wrong Turn» (Km. 666 – Desvío al infierno), del año 2003, protagonizada por los tres caníbales de dicha entrega. Un grupo de amigos deciden ir a practicar snow en sus vacaciones invernales. Pero como en anteriores ocasiones, tomarán un camino equivocado perdiéndose en una tormenta y buscando refugio en un antiguo sanatorio. Allí están completamente aislados y a merced de la tormenta. Pero el lugar, tiene un pasado y algunos de sus antiguos pacientes no están demasiado contentos en tener «invitados».

Ficha técnica

Video trailer de la película

Enlaces de descarga

Rip de Bluray

Descargar Camino Hacia el Terror 4: Inicio Sangriento (2011) UNRATED REMUX 1080p Latino-CMHDD


Aportes de DPeliculasHDmega la pass es:dpeliculashdmega.org Aportes de CinemaniaHD la pass es:cinemaniahdd.com Aportes recientes:cinemaniahdd.net
Guardado en : Remux , Suspenso , Terror
Etiquetado en :

Películas relacionadas

descargar Camino Hacia el Terror 4: Inicio Sangriento (2011) UNRATED REMUX 1080p Latino-CMHDD Full 1080p 1080p gratis, Camino Hacia el Terror 4: Inicio Sangriento (2011) UNRATED REMUX 1080p Latino-CMHDD Full 1080p mega 1 link, Camino Hacia el Terror 4: Inicio Sangriento (2011) UNRATED REMUX 1080p Latino-CMHDD Full 1080p pelicula completa, descargar Camino Hacia el Terror 4: Inicio Sangriento (2011) UNRATED REMUX 1080p Latino-CMHDD Full 1080p gratis en mega.

Camino Hacia el Terror 4: Inicio Sangriento (2011) UNRATED REMUX 1080p Latino-CMHDD pelicula full hd, Camino Hacia el Terror 4: Inicio Sangriento (2011) UNRATED REMUX 1080p Latino-CMHDD mega latino, Camino Hacia el Terror 4: Inicio Sangriento (2011) UNRATED REMUX 1080p Latino-CMHDD 4k latino, Camino Hacia el Terror 4: Inicio Sangriento (2011) UNRATED REMUX 1080p Latino-CMHDD pelicula completa, Camino Hacia el Terror 4: Inicio Sangriento (2011) UNRATED REMUX 1080p Latino-CMHDD descargar gratis, descargar Camino Hacia el Terror 4: Inicio Sangriento (2011) UNRATED REMUX 1080p Latino-CMHDD pelicula latino, Camino Hacia el Terror 4: Inicio Sangriento (2011) UNRATED REMUX 1080p Latino-CMHDD 1 link mega, Camino Hacia el Terror 4: Inicio Sangriento (2011) UNRATED REMUX 1080p Latino-CMHDD 1 link google drive, Camino Hacia el Terror 4: Inicio Sangriento (2011) UNRATED REMUX 1080p Latino-CMHDD hd 1080p latino.
Comentarios 0