×

¿Problemas para descargar con Mozilla, EDGE? Deshabilita la opción "Abrir vinculos en una pestaña nueva" tal como lo muestra ésta imagen.

Camino Hacia el Terror 3: Abandonado para morir (2009) UNRATED REMUX 1080p Latino-CMHDD

135 vistas

Información de Camino Hacia el Terror 3: Abandonado para morir (2009) UNRATED REMUX 1080p Latino-CMHDD

Datos de la película

  • Calidad: Full 1080p
  • Audio: Español Latino AC3 5.1 BLURAY - Ingles DTS 5.1 BLURAY
  • Subtitulos: Español Latino PGS - Ingles PGS
  • Resolución: 1920x1080p
  • Formato: MKV
  • Codec: H.264
  • Encoder: CinefiloCool
  • Mediainfo: Clic para Mostrar Datos Ver
  • Camino Hacia El Terror 3 (2009) UNR REMUX 1080p Latino-CMHDD.mkv
    Format                      : Matroska
    Format version              : Version 4
    File size                   : 17.0 GiB
    Duration                    : 1 h 32 min
    Overall bit rate mode       : Variable
    Overall bit rate            : 26.4 Mb/s
    Movie name                  : Wrong Turn 3. Left for Dead (2009) CinemaniaHDD.Net
    Encoded date                : UTC 2023-10-12 03:10:20
    Writing application         : mkvmerge v56.1.0 ('My Friend') 64-bit
    Writing library             : libebml v1.4.2 + libmatroska v1.6.4
    Attachments                 : CINEMANIAHD.png

    Video
    ID                          : 1
    ID in the original source m : 4113 (0x1011)
    Format                      : AVC
    Format/Info                 : Advanced Video Codec
    Format profile              : High@L4.1
    Format settings             : CABAC / 4 Ref Frames
    Format settings, CABAC      : Yes
    Format settings, Reference  : 4 frames
    Codec ID                    : V_MPEG4/ISO/AVC
    Duration                    : 1 h 32 min
    Bit rate mode               : Variable
    Bit rate                    : 22.0 Mb/s
    Maximum bit rate            : 39.0 Mb/s
    Width                       : 1 920 pixels
    Height                      : 1 080 pixels
    Display aspect ratio        : 16:9
    Frame rate mode             : Constant
    Frame rate                  : 23.976 (24000/1001) FPS
    Color space                 : YUV
    Chroma subsampling          : 4:2:0
    Bit depth                   : 8 bits
    Scan type                   : Progressive
    Bits/(Pixel*Frame)          : 0.443
    Stream size                 : 14.2 GiB (83%)
    Title                       : REMUX HD1080p [CinemaniaHDD]
    Default                     : Yes
    Forced                      : Yes
    Color range                 : Limited
    Color primaries             : BT.709
    Transfer characteristics    : BT.709
    Matrix coefficients         : BT.709
    Original source medium      : Blu-ray

    Audio #1
    ID                          : 2
    ID in the original source m : 4353 (0x1101)
    Format                      : AC-3
    Format/Info                 : Audio Coding 3
    Commercial name             : Dolby Digital
    Codec ID                    : A_AC3
    Duration                    : 1 h 32 min
    Bit rate mode               : Constant
    Bit rate                    : 448 kb/s
    Channel(s)                  : 6 channels
    Channel layout              : L R C LFE Ls Rs
    Sampling rate               : 48.0 kHz
    Frame rate                  : 31.250 FPS (1536 SPF)
    Compression mode            : Lossy
    Stream size                 : 295 MiB (2%)
    Title                       : Español Latino [CinemaniaHDD]
    Language                    : Spanish
    Service kind                : Complete Main
    Default                     : Yes
    Forced                      : Yes
    Original source medium      : Blu-ray

    Audio #2
    ID                          : 3
    ID in the original source m : 4352 (0x1100)
    Format                      : DTS XLL
    Format/Info                 : Digital Theater Systems
    Commercial name             : DTS-HD Master Audio
    Codec ID                    : A_DTS
    Duration                    : 1 h 32 min
    Bit rate mode               : Variable
    Bit rate                    : 3 884 kb/s
    Channel(s)                  : 6 channels
    Channel layout              : C L R Ls Rs LFE
    Sampling rate               : 48.0 kHz
    Frame rate                  : 93.750 FPS (512 SPF)
    Bit depth                   : 24 bits
    Compression mode            : Lossless
    Stream size                 : 2.50 GiB (15%)
    Title                       : Ingles [CinemaniaHDD]
    Language                    : English
    Default                     : No
    Forced                      : No
    Original source medium      : Blu-ray

    Text #1
    ID                          : 4
    ID in the original source m : 4609 (0x1201)
    Format                      : PGS
    Muxing mode                 : zlib
    Codec ID                    : S_HDMV/PGS
    Codec ID/Info               : Picture based subtitle format used on BDs/HD-DVDs
    Duration                    : 1 h 28 min
    Bit rate                    : 40.9 kb/s
    Count of elements           : 1922
    Stream size                 : 25.8 MiB (0%)
    Title                       : Español-PGS [CinemaniaHDD]
    Language                    : Spanish
    Default                     : No
    Forced                      : No
    Original source medium      : Blu-ray

    Text #2
    ID                          : 5
    ID in the original source m : 4608 (0x1200)
    Format                      : PGS
    Muxing mode                 : zlib
    Codec ID                    : S_HDMV/PGS
    Codec ID/Info               : Picture based subtitle format used on BDs/HD-DVDs
    Duration                    : 1 h 28 min
    Bit rate                    : 50.7 kb/s
    Count of elements           : 2444
    Stream size                 : 32.2 MiB (0%)
    Title                       : Ingles [CinemaniaHDD]
    Language                    : English
    Default                     : No
    Forced                      : No
    Original source medium      : Blu-ray

    Text #3
    ID                          : 6
    Format                      : UTF-8
    Codec ID                    : S_TEXT/UTF8
    Codec ID/Info               : UTF-8 Plain Text
    Duration                    : 1 h 20 min
    Bit rate                    : 0 b/s
    Count of elements           : 7
    Stream size                 : 165 Bytes (0%)
    Title                       : Forzados-SRT [CinemaniaHDD]
    Language                    : Spanish
    Default                     : Yes
    Forced                      : Yes

    Text #4
    ID                          : 7
    Format                      : UTF-8
    Codec ID                    : S_TEXT/UTF8
    Codec ID/Info               : UTF-8 Plain Text
    Duration                    : 1 h 28 min
    Bit rate                    : 52 b/s
    Count of elements           : 959
    Stream size                 : 33.7 KiB (0%)
    Title                       : Español-SRT [CinemaniaHDD]
    Language                    : Spanish
    Default                     : No
    Forced                      : No

    Menu
    00:00:00.000                : Chapter 01
    00:02:57.010                : Chapter 02
    00:06:51.702                : Chapter 03
    00:12:04.265                : Chapter 04
    00:18:38.700                : Chapter 05
    00:25:49.923                : Chapter 06
    00:31:45.445                : Chapter 07
    00:37:47.014                : Chapter 08
    00:44:26.955                : Chapter 09
    00:52:17.134                : Chapter 10
    00:59:18.263                : Chapter 11
    01:03:15.208                : Chapter 12
    01:05:48.027                : Chapter 13
    01:10:08.704                : Chapter 14
    01:17:32.606                : Chapter 15
    01:28:20.628                : Chapter 16

  • Peso: 17.0 GB

Sinopsis

Descargar Camino Hacia el Terror 3: Abandonado para morir (2009) UNRATED REMUX 1080p Latino-CMHDD. Fonda y sus amigos van al bosque a pasar unos días. Sus amigos son víctimas del mutante asesino, Tres Dedos, convirtiéndose en su alimento. Mientras tanto algunos prisioneros peligrosos están siendo transferidos por Nate Wilson, un guardián de la prisión, que va a retirarse para convertirse en abogado. Durante el transporte su camión es atacado por Tres Dedos. Por lo que los prisioneros se fugan. Mientras huyen por los bosques, los prisioneros encuentran por casualidad un camión abandonado lleno de bolsas del dinero. Uno por uno Tres Dedos acaba con todos los prisioneros… Tercera y última entrega de la trilogía Km 666, lanzada (como la segunda parte) directa en DVD y Blu-Ray

Ficha técnica

Video trailer de la película

Enlaces de descarga

Rip de Bluray

Descargar Camino Hacia el Terror 3: Abandonado para morir (2009) UNRATED REMUX 1080p Latino-CMHDD


Aportes de DPeliculasHDmega la pass es:dpeliculashdmega.org Aportes de CinemaniaHD la pass es:cinemaniahdd.com Aportes recientes:cinemaniahdd.net
Guardado en : Remux , Suspenso , Terror
Etiquetado en :

Películas relacionadas

  • La Duquesa (2008) REMUX 1080p Latino-CMHDD

    La Duquesa (2008) REMUX 1080p Latino-CMHDD

    2008
    La Duquesa (2008) REMUX 1080p Latino-CMHDD

    1h 51m 2008

    Descargar La Duquesa (2008) REMUX 1080p Latino-CMHDD. Hermosa, glamurosa y adorada por el pueblo, Georgiana...

    Director: Saul Dibb

    Género: Drama

    Actores: Thomas Arnold

  • Godzilla vs. Kong (2021) REMUX 4K HDR Latino – CMHDD

    Godzilla vs. Kong (2021) REMUX 4K HDR Latino – CMHDD

    2021
    Godzilla vs. Kong (2021) REMUX 4K HDR Latino – CMHDD

    1h 54m 2021

    Godzilla y Kong, dos de las fuerzas más poderosas de un planeta habitado por todo tipo de aterradoras...

    Director: Thomas Robinson Harper

    Género: Acción

    Actores: Victoria Liu

  • Ferrari (2023) REMUX 1080p Latino

    Ferrari (2023) REMUX 1080p Latino

    2023
    Ferrari (2023) REMUX 1080p Latino

    2h 11m 2023

    Descargar Ferrari (2023) REMUX 1080p Latino. Verano de 1957. El ex piloto de carreras, Ferrari, está...

    Director: Peter Thorell

    Género: Drama

    Actores: Wyatt Carnel

descargar Camino Hacia el Terror 3: Abandonado para morir (2009) UNRATED REMUX 1080p Latino-CMHDD Full 1080p 1080p gratis, Camino Hacia el Terror 3: Abandonado para morir (2009) UNRATED REMUX 1080p Latino-CMHDD Full 1080p mega 1 link, Camino Hacia el Terror 3: Abandonado para morir (2009) UNRATED REMUX 1080p Latino-CMHDD Full 1080p pelicula completa, descargar Camino Hacia el Terror 3: Abandonado para morir (2009) UNRATED REMUX 1080p Latino-CMHDD Full 1080p gratis en mega.

Camino Hacia el Terror 3: Abandonado para morir (2009) UNRATED REMUX 1080p Latino-CMHDD pelicula full hd, Camino Hacia el Terror 3: Abandonado para morir (2009) UNRATED REMUX 1080p Latino-CMHDD mega latino, Camino Hacia el Terror 3: Abandonado para morir (2009) UNRATED REMUX 1080p Latino-CMHDD 4k latino, Camino Hacia el Terror 3: Abandonado para morir (2009) UNRATED REMUX 1080p Latino-CMHDD pelicula completa, Camino Hacia el Terror 3: Abandonado para morir (2009) UNRATED REMUX 1080p Latino-CMHDD descargar gratis, descargar Camino Hacia el Terror 3: Abandonado para morir (2009) UNRATED REMUX 1080p Latino-CMHDD pelicula latino, Camino Hacia el Terror 3: Abandonado para morir (2009) UNRATED REMUX 1080p Latino-CMHDD 1 link mega, Camino Hacia el Terror 3: Abandonado para morir (2009) UNRATED REMUX 1080p Latino-CMHDD 1 link google drive, Camino Hacia el Terror 3: Abandonado para morir (2009) UNRATED REMUX 1080p Latino-CMHDD hd 1080p latino.
Comentarios 0