×

¿Problemas para descargar con Mozilla, EDGE? Deshabilita la opción "Abrir vinculos en una pestaña nueva" tal como lo muestra ésta imagen.

Camino Hacia El Terror (2003) REMUX 1080p Latino-CMHDD

163 vistas

Información de Camino Hacia El Terror (2003) REMUX 1080p Latino-CMHDD

Datos de la película

  • Calidad: Full 1080p
  • Audio: Español Latino AC3 2.0 BLURAY - Ingles DTS 5.1 BLURAY
  • Subtitulos: Español Latino PGS - Ingles PGS
  • Resolución: 1920x1080p
  • Formato: MKV
  • Codec: H.264
  • Encoder: CinefiloCool
  • Mediainfo: Clic para Mostrar Datos Ver
  • Camino Hacia El Terror (2003) REMUX 1080p Latino-CMHDD.mkv
    Format                      : Matroska
    Format version              : Version 4
    File size                   : 19.3 GiB
    Duration                    : 1 h 24 min
    Overall bit rate mode       : Variable
    Overall bit rate            : 32.8 Mb/s
    Movie name                  : Wrong Turn (2003) CinemaniaHDD.Net
    Encoded date                : UTC 2023-10-11 21:25:58
    Writing application         : mkvmerge v56.1.0 ('My Friend') 64-bit
    Writing library             : libebml v1.4.2 + libmatroska v1.6.4
    Attachments                 : CINEMANIAHD.png

    Video
    ID                          : 1
    ID in the original source m : 4113 (0x1011)
    Format                      : AVC
    Format/Info                 : Advanced Video Codec
    Format profile              : High@L4.1
    Format settings             : CABAC / 4 Ref Frames
    Format settings, CABAC      : Yes
    Format settings, Reference  : 4 frames
    Codec ID                    : V_MPEG4/ISO/AVC
    Duration                    : 1 h 24 min
    Bit rate mode               : Variable
    Bit rate                    : 28.1 Mb/s
    Maximum bit rate            : 40.0 Mb/s
    Width                       : 1 920 pixels
    Height                      : 1 080 pixels
    Display aspect ratio        : 16:9
    Frame rate mode             : Constant
    Frame rate                  : 23.976 (24000/1001) FPS
    Color space                 : YUV
    Chroma subsampling          : 4:2:0
    Bit depth                   : 8 bits
    Scan type                   : Progressive
    Bits/(Pixel*Frame)          : 0.565
    Stream size                 : 16.5 GiB (86%)
    Title                       : REMUX HD1080p [CinemaniaHDD]
    Default                     : Yes
    Forced                      : Yes
    Color range                 : Limited
    Color primaries             : BT.709
    Transfer characteristics    : BT.709
    Matrix coefficients         : BT.709
    Original source medium      : Blu-ray

    Audio #1
    ID                          : 2
    ID in the original source m : 4353 (0x1101)
    Format                      : AC-3
    Format/Info                 : Audio Coding 3
    Commercial name             : Dolby Digital
    Format settings             : Dolby Surround
    Codec ID                    : A_AC3
    Duration                    : 1 h 24 min
    Bit rate mode               : Constant
    Bit rate                    : 224 kb/s
    Channel(s)                  : 2 channels
    Channel layout              : L R
    Sampling rate               : 48.0 kHz
    Frame rate                  : 31.250 FPS (1536 SPF)
    Compression mode            : Lossy
    Stream size                 : 135 MiB (1%)
    Title                       : Español Latino [CinemaniaHDD]
    Language                    : Spanish
    Service kind                : Complete Main
    Default                     : Yes
    Forced                      : Yes
    Original source medium      : Blu-ray

    Audio #2
    ID                          : 3
    ID in the original source m : 4352 (0x1100)
    Format                      : DTS XLL
    Format/Info                 : Digital Theater Systems
    Commercial name             : DTS-HD Master Audio
    Codec ID                    : A_DTS
    Duration                    : 1 h 24 min
    Bit rate mode               : Variable
    Bit rate                    : 4 437 kb/s
    Channel(s)                  : 6 channels
    Channel layout              : C L R Ls Rs LFE
    Sampling rate               : 48.0 kHz
    Frame rate                  : 93.750 FPS (512 SPF)
    Bit depth                   : 24 bits
    Compression mode            : Lossless
    Stream size                 : 2.61 GiB (14%)
    Title                       : Ingles [CinemaniaHDD]
    Language                    : English
    Default                     : No
    Forced                      : No
    Original source medium      : Blu-ray

    Text #1
    ID                          : 4
    ID in the original source m : 4609 (0x1201)
    Format                      : PGS
    Muxing mode                 : zlib
    Codec ID                    : S_HDMV/PGS
    Codec ID/Info               : Picture based subtitle format used on BDs/HD-DVDs
    Duration                    : 1 h 16 min
    Bit rate                    : 17.7 kb/s
    Count of elements           : 1134
    Stream size                 : 9.69 MiB (0%)
    Title                       : Español-PGS [CinemaniaHDD]
    Language                    : Spanish
    Default                     : No
    Forced                      : No
    Original source medium      : Blu-ray

    Text #2
    ID                          : 5
    ID in the original source m : 4608 (0x1200)
    Format                      : PGS
    Muxing mode                 : zlib
    Codec ID                    : S_HDMV/PGS
    Codec ID/Info               : Picture based subtitle format used on BDs/HD-DVDs
    Duration                    : 1 h 20 min
    Bit rate                    : 25.8 kb/s
    Count of elements           : 1634
    Stream size                 : 14.8 MiB (0%)
    Title                       : Ingles [CinemaniaHDD]
    Language                    : English
    Default                     : No
    Forced                      : No
    Original source medium      : Blu-ray

    Text #3
    ID                          : 6
    Format                      : UTF-8
    Codec ID                    : S_TEXT/UTF8
    Codec ID/Info               : UTF-8 Plain Text
    Duration                    : 1 h 13 min
    Bit rate                    : 0 b/s
    Count of elements           : 9
    Stream size                 : 171 Bytes (0%)
    Title                       : Forzados-SRT [CinemaniaHDD]
    Language                    : Spanish
    Default                     : Yes
    Forced                      : Yes

    Text #4
    ID                          : 7
    Format                      : UTF-8
    Codec ID                    : S_TEXT/UTF8
    Codec ID/Info               : UTF-8 Plain Text
    Duration                    : 1 h 14 min
    Bit rate                    : 26 b/s
    Count of elements           : 507
    Stream size                 : 14.3 KiB (0%)
    Title                       : Español-SRT [CinemaniaHDD]
    Language                    : Spanish
    Default                     : No
    Forced                      : No

    Menu
    00:00:00.000                : Chapter 01
    00:03:26.122                : Chapter 02
    00:05:38.504                : Chapter 03
    00:08:40.811                : Chapter 04
    00:11:41.784                : Chapter 05
    00:14:05.469                : Chapter 06
    00:15:45.277                : Chapter 07
    00:23:17.354                : Chapter 08
    00:28:07.102                : Chapter 09
    00:30:15.104                : Chapter 10
    00:33:30.717                : Chapter 11
    00:37:10.019                : Chapter 12
    00:39:21.192                : Chapter 13
    00:44:38.175                : Chapter 14
    00:47:30.848                : Chapter 15
    00:52:02.494                : Chapter 16
    00:54:33.853                : Chapter 17
    00:56:44.317                : Chapter 18
    00:59:26.646                : Chapter 19
    01:02:29.245                : Chapter 20
    01:05:50.821                : Chapter 21
    01:09:14.817                : Chapter 22
    01:11:38.460                : Chapter 23
    01:13:04.505                : Chapter 24
    01:14:47.816                : Chapter 25
    01:16:01.390                : Chapter 26
    01:17:39.488                : Chapter 27
    01:19:05.574                : Chapter 28

  • Peso: 19.3 GiB

Sinopsis

Descargar Camino Hacia El Terror (2003) REMUX 1080p Latino-CMHDD. Seis adolescentes viajan en coche cuando, de pronto, deben desviarse de su ruta al encontrar la carretera bloqueada por un accidente. Pero los jóvenes se pierden en los densos bosques de West Virginia, donde serán perseguidos por una raza humana de caníbales, horriblemente desfigurados por su antinatural alimentación a lo largo de generaciones…

Ficha técnica

Video trailer de la película

Enlaces de descarga

Rip de Bluray

Descargar Camino Hacia El Terror (2003) REMUX 1080p Latino-CMHDD


Aportes de DPeliculasHDmega la pass es:dpeliculashdmega.org Aportes de CinemaniaHD la pass es:cinemaniahdd.com Aportes recientes:cinemaniahdd.net
Guardado en : Remux , Suspenso , Terror
Etiquetado en :

Películas relacionadas

  • La La Land (2016) REMUX 1080p Latino – CMHDD

    La La Land (2016) REMUX 1080p Latino – CMHDD

    2016
    La La Land (2016) REMUX 1080p Latino – CMHDD

    2h 8m 2016

    Mia (Emma Stone), una joven aspirante a actriz que trabaja como camarera mientras acude a castings, y...

    Director: Peter Kohn

    Género: Comedia

    Actores: Zoë Hall

  • El Fin de Los Tiempos (2008) Full HD 1080p Latino-CMHDD

    El Fin de Los Tiempos (2008) Full HD 1080p Latino-CMHDD

    2008
    El Fin de Los Tiempos (2008) Full HD 1080p Latino-CMHDD

    1h 30m 2008

    Descargar El Fin de Los Tiempos (2008) Full HD 1080p Latino-CMHDD. En unos minutos, en las principales...

    Director: Mary Cybulski

    Género: Ciencia ficción

    Actores: Zooey Deschanel

  • El Fin de Los Tiempos (2008) REMUX 1080p Latino-CMHDD

    El Fin de Los Tiempos (2008) REMUX 1080p Latino-CMHDD

    2008
    El Fin de Los Tiempos (2008) REMUX 1080p Latino-CMHDD

    1h 30m 2008

    Descargar El Fin de Los Tiempos (2008) REMUX 1080p Latino-CMHDD. En unos minutos, en las principales...

    Director: M. Night Shyamalan

    Género: Ciencia ficción

    Actores: Zooey Deschanel

  • Victor Frankenstein (2015) REMUX 1080p Latino-CMHDD

    Victor Frankenstein (2015) REMUX 1080p Latino-CMHDD

    2015
    Victor Frankenstein (2015) REMUX 1080p Latino-CMHDD

    1h 50m 2015

    Descargar Victor Frankenstein (2015) REMUX 1080p Latino-CMHDD. En los ambiciosos planes del doctor para...

    Director: Toby Ford

    Género: Ciencia ficción

    Actores: Will Keen

descargar Camino Hacia El Terror (2003) REMUX 1080p Latino-CMHDD Full 1080p 1080p gratis, Camino Hacia El Terror (2003) REMUX 1080p Latino-CMHDD Full 1080p mega 1 link, Camino Hacia El Terror (2003) REMUX 1080p Latino-CMHDD Full 1080p pelicula completa, descargar Camino Hacia El Terror (2003) REMUX 1080p Latino-CMHDD Full 1080p gratis en mega.

Camino Hacia El Terror (2003) REMUX 1080p Latino-CMHDD pelicula full hd, Camino Hacia El Terror (2003) REMUX 1080p Latino-CMHDD mega latino, Camino Hacia El Terror (2003) REMUX 1080p Latino-CMHDD 4k latino, Camino Hacia El Terror (2003) REMUX 1080p Latino-CMHDD pelicula completa, Camino Hacia El Terror (2003) REMUX 1080p Latino-CMHDD descargar gratis, descargar Camino Hacia El Terror (2003) REMUX 1080p Latino-CMHDD pelicula latino, Camino Hacia El Terror (2003) REMUX 1080p Latino-CMHDD 1 link mega, Camino Hacia El Terror (2003) REMUX 1080p Latino-CMHDD 1 link google drive, Camino Hacia El Terror (2003) REMUX 1080p Latino-CMHDD hd 1080p latino.
Comentarios 0