World War Z (2013) [UNRATED] REMUX 1080p Latino – CMHDD

14 vistas
1 estrella2 estrellas3 estrellas4 estrellas5 estrellas (Ninguna valoración todavía)
Cargando…

Información de World War Z (2013) [UNRATED] REMUX 1080p Latino – CMHDD

Datos de la película

  • Calidad: Full 1080p
  • Audio: Español Latino AC3 5.1 BLURAY - Ingles DTS-HD Master 7.1 BLURAY
  • Subtitulos: Español Latino SRT- FORZADOS SRT
  • Resolución: 1920x1080p
  • Formato: MKV
  • Codec: H.264
  • Encoder: Dracarys
  • Mediainfo: Clic para Mostrar Datos Ver
  • Format                      : Matroska
    Format version              : Version 4
    File size                   : 30.1 GiB
    Duration                    : 2 h 3 min
    Overall bit rate mode       : Variable
    Overall bit rate            : 35.1 Mb/s
    Movie name                  : World War Z (2013) [UNRATED] REMUX 1080p Latino - CMHDD
    Encoded date                : UTC 2020-07-26 01:08:51
    Writing application         : mkvmerge v46.0.0 ('No Deeper Escape') 64-bit
    Writing library             : libebml v1.3.10 + libmatroska v1.5.2

    Video
    ID                          : 1
    Format                      : AVC
    Format/Info                 : Advanced Video Codec
    Format profile              : High@L4.1
    Format settings             : CABAC / 4 Ref Frames
    Format settings, CABAC      : Yes
    Format settings, Reference  : 4 frames
    Codec ID                    : V_MPEG4/ISO/AVC
    Duration                    : 2 h 3 min
    Bit rate mode               : Variable
    Bit rate                    : 29.4 Mb/s
    Maximum bit rate            : 34.0 Mb/s
    Width                       : 1 920 pixels
    Height                      : 1 080 pixels
    Display aspect ratio        : 16:9
    Frame rate mode             : Constant
    Frame rate                  : 23.976 (24000/1001) FPS
    Color space                 : YUV
    Chroma subsampling          : 4:2:0
    Bit depth                   : 8 bits
    Scan type                   : Progressive
    Bits/(Pixel*Frame)          : 0.592
    Stream size                 : 25.3 GiB (84%)
    Default                     : Yes
    Forced                      : No

    Audio #1
    ID                          : 2
    Format                      : AC-3
    Format/Info                 : Audio Coding 3
    Commercial name             : Dolby Digital
    Codec ID                    : A_AC3
    Duration                    : 2 h 3 min
    Bit rate mode               : Constant
    Bit rate                    : 640 kb/s
    Channel(s)                  : 6 channels
    Channel layout              : L R C LFE Ls Rs
    Sampling rate               : 48.0 kHz
    Frame rate                  : 31.250 FPS (1536 SPF)
    Compression mode            : Lossy
    Stream size                 : 563 MiB (2%)
    Language                    : Spanish
    Service kind                : Complete Main
    Default                     : Yes
    Forced                      : No

    Audio #2
    ID                          : 3
    Format                      : DTS XLL
    Format/Info                 : Digital Theater Systems
    Commercial name             : DTS-HD Master Audio
    Codec ID                    : A_DTS
    Duration                    : 2 h 3 min
    Bit rate mode               : Variable
    Bit rate                    : 4 991 kb/s
    Channel(s)                  : 8 channels
    Channel layout              : C L R LFE Lb Rb Lss Rss
    Sampling rate               : 48.0 kHz
    Frame rate                  : 93.750 FPS (512 SPF)
    Bit depth                   : 24 bits
    Compression mode            : Lossless
    Stream size                 : 4.29 GiB (14%)
    Language                    : English
    Default                     : No
    Forced                      : No

    Text #1
    ID                          : 4
    Format                      : PGS
    Muxing mode                 : zlib
    Codec ID                    : S_HDMV/PGS
    Codec ID/Info               : Picture based subtitle format used on BDs/HD-DVDs
    Duration                    : 1 h 54 min
    Bit rate                    : 24.6 kb/s
    Count of elements           : 2404
    Stream size                 : 20.1 MiB (0%)
    Language                    : Spanish
    Default                     : No
    Forced                      : No

    Text #2
    ID                          : 5
    Format                      : UTF-8
    Codec ID                    : S_TEXT/UTF8
    Codec ID/Info               : UTF-8 Plain Text
    Duration                    : 1 h 54 min
    Bit rate                    : 38 b/s
    Count of elements           : 1202
    Stream size                 : 32.2 KiB (0%)
    Language                    : Spanish
    Default                     : No
    Forced                      : No

    Text #3
    ID                          : 6
    Format                      : UTF-8
    Codec ID                    : S_TEXT/UTF8
    Codec ID/Info               : UTF-8 Plain Text
    Duration                    : 1 h 49 min
    Bit rate                    : 0 b/s
    Count of elements           : 18
    Stream size                 : 566 Bytes (0%)
    Title                       : Forzados
    Language                    : Spanish
    Default                     : Yes
    Forced                      : No

  • Peso: 30.1 GiB

Sinopsis

Cuando el mundo comienza a ser invadido por una legión de muertos vivientes, Gerry Lane, un experto investigador de las Naciones Unidas, intentará evitar el fin de la civilización en una carrera contra el tiempo y el destino. La destrucción a la que se ve sometida la raza humana lo lleva a recorrer el mundo entero buscando la solución para frenar esa horrible epidemia.

Ficha técnica

Video trailer de la película

Enlaces de descarga

Rip de Bluray

Descargar World War Z (2013) [UNRATED] REMUX 1080p Latino – CMHDD




Aportes de DPeliculasHDmega la pass es:dpeliculashdmega.org Aportes de CinemaniaHD la pass es:cinemaniahdd.com

Películas relacionadas

  • The Hater (2020) HD 1080p Latino

    The Hater (2020) HD 1080p Latino

    2020
    The Hater (2020) HD 1080p Latino

    0.0 2h 15m 2020

    Descargar The Hater (2020) HD 1080p Latino. Narra las manipulaciones del maquiavélico Tomek para conseguir...

    Director: Jan Komasa

    Género: Drama

    Actores: Vanessa Aleksander

  • The Hater (2020) PLACEBO Full HD 1080p Latino

    The Hater (2020) PLACEBO Full HD 1080p Latino

    2020
    The Hater (2020) PLACEBO Full HD 1080p Latino

    0.0 2h 15m 2020

    Descargar The Hater (2020) Placebo Full HD 1080p Latino. Narra las manipulaciones del maquiavélico Tomek...

    Director: Jan Komasa

    Género: Drama

    Actores: Vanessa Aleksander

  • The Hater (2020) REMUX 1080p Latino

    The Hater (2020) REMUX 1080p Latino

    2020
    The Hater (2020) REMUX 1080p Latino

    0.0 2h 15m 2020

    Descargar The Hater (2020) REMUX 1080p Latino. Narra las manipulaciones del maquiavélico Tomek para...

    Director: Jan Komasa

    Género: Drama

    Actores: Vanessa Aleksander

  • El Fanático (2019) HD 1080p Latino

    El Fanático (2019) HD 1080p Latino

    2019
    El Fanático (2019) HD 1080p Latino

    0.0 1h 28m 2019

    Descargar El Fanático (2019) HD 1080p Latino. Moose es un fanático del cine de acción que vive obsesionado...

    Director: Kimberley Roper

    Género: Crimen

    Actores: Rob Wolfe

  • El Fanático (2019) PLACEBO Full HD 1080p Latino

    El Fanático (2019) PLACEBO Full HD 1080p Latino

    2019
    El Fanático (2019) PLACEBO Full HD 1080p Latino

    0.0 1h 28m 2019

    Descargar El Fanático (2019) PLACEBO Full HD 1080p Latino. Moose es un fanático del cine de acción...

    Director: Kimberley Roper

    Género: Crimen

    Actores: Rob Wolfe

Comentarios 1
  • ocpgaiden - 02 agosto, 2020

    Gracias por Guerra mundial z unrated bdremux, saludos