World War Z (2013) [UNRATED] HD 1080p Latino – CMHDD

10 vistas
1 estrella2 estrellas3 estrellas4 estrellas5 estrellas (Ninguna valoración todavía)
Cargando…

Información de World War Z (2013) [UNRATED] HD 1080p Latino – CMHDD

Datos de la película

  • Calidad: Full 1080p
  • Audio: Español Latino AC3 5.1 BLURAY - Ingles AC3 5.1 BLURAY
  • Subtitulos: Español Latino SRT- FORZADOS SRT
  • Resolución: 1920x800p
  • Formato: MKV
  • Codec: H.264
  • Encoder: Dracarys
  • Mediainfo: Clic para Mostrar Datos Ver
  • Format                      : Matroska
    Format version              : Version 4
    File size                   : 4.08 GiB
    Duration                    : 2 h 3 min
    Overall bit rate            : 4 751 kb/s
    Movie name                  : World War Z (2013) [UNRATED] HD 1080p Latino - CMHDD
    Encoded date                : UTC 2020-07-26 01:13:15
    Writing application         : mkvmerge v46.0.0 ('No Deeper Escape') 64-bit
    Writing library             : libebml v1.3.10 + libmatroska v1.5.2

    Video
    ID                          : 1
    Format                      : AVC
    Format/Info                 : Advanced Video Codec
    Format profile              : High@L4.1
    Format settings             : CABAC / 5 Ref Frames
    Format settings, CABAC      : Yes
    Format settings, Reference  : 5 frames
    Codec ID                    : V_MPEG4/ISO/AVC
    Duration                    : 2 h 3 min
    Bit rate                    : 3 500 kb/s
    Width                       : 1 920 pixels
    Height                      : 800 pixels
    Display aspect ratio        : 2.40:1
    Frame rate mode             : Constant
    Frame rate                  : 23.976 (24000/1001) FPS
    Color space                 : YUV
    Chroma subsampling          : 4:2:0
    Bit depth                   : 8 bits
    Scan type                   : Progressive
    Bits/(Pixel*Frame)          : 0.095
    Stream size                 : 2.98 GiB (73%)
    Writing library             : x264 core 157 r2935 545de2f
    Encoding settings           : cabac=1 / ref=5 / deblock=1:0:0 / analyse=0x3:0x113 / me=hex / subme=8 / psy=1 / psy_rd=1.00:0.00 / mixed_ref=1 / me_range=16 / chroma_me=1 / trellis=2 / 8x8dct=1 / cqm=0 / deadzone=21,11 / fast_pskip=1 / chroma_qp_offset=-2 / threads=24 / lookahead_threads=4 / sliced_threads=0 / nr=0 / decimate=1 / interlaced=0 / bluray_compat=0 / constrained_intra=0 / bframes=3 / b_pyramid=2 / b_adapt=1 / b_bias=0 / direct=3 / weightb=1 / open_gop=0 / weightp=2 / keyint=240 / keyint_min=24 / scenecut=40 / intra_refresh=0 / rc_lookahead=50 / rc=abr / mbtree=1 / bitrate=3500 / ratetol=1.0 / qcomp=0.60 / qpmin=0 / qpmax=69 / qpstep=4 / vbv_maxrate=62500 / vbv_bufsize=78125 / nal_hrd=none / filler=0 / ip_ratio=1.40 / aq=1:1.00
    Default                     : Yes
    Forced                      : No
    Color range                 : Limited
    Color primaries             : BT.709
    Transfer characteristics    : BT.709
    Matrix coefficients         : BT.709

    Audio #1
    ID                          : 2
    Format                      : AC-3
    Format/Info                 : Audio Coding 3
    Commercial name             : Dolby Digital
    Codec ID                    : A_AC3
    Duration                    : 2 h 3 min
    Bit rate mode               : Constant
    Bit rate                    : 640 kb/s
    Channel(s)                  : 6 channels
    Channel layout              : L R C LFE Ls Rs
    Sampling rate               : 48.0 kHz
    Frame rate                  : 31.250 FPS (1536 SPF)
    Compression mode            : Lossy
    Stream size                 : 563 MiB (13%)
    Language                    : Spanish
    Service kind                : Complete Main
    Default                     : Yes
    Forced                      : No

    Audio #2
    ID                          : 3
    Format                      : AC-3
    Format/Info                 : Audio Coding 3
    Commercial name             : Dolby Digital
    Codec ID                    : A_AC3
    Duration                    : 2 h 3 min
    Bit rate mode               : Constant
    Bit rate                    : 640 kb/s
    Channel(s)                  : 6 channels
    Channel layout              : L R C LFE Ls Rs
    Sampling rate               : 48.0 kHz
    Frame rate                  : 31.250 FPS (1536 SPF)
    Compression mode            : Lossy
    Delay relative to video     : -5 ms
    Stream size                 : 563 MiB (13%)
    Language                    : English
    Service kind                : Complete Main
    Default                     : No
    Forced                      : No

    Text #1
    ID                          : 4
    Format                      : UTF-8
    Codec ID                    : S_TEXT/UTF8
    Codec ID/Info               : UTF-8 Plain Text
    Duration                    : 1 h 54 min
    Bit rate                    : 38 b/s
    Count of elements           : 1202
    Stream size                 : 32.2 KiB (0%)
    Language                    : Spanish
    Default                     : No
    Forced                      : No

    Text #2
    ID                          : 5
    Format                      : UTF-8
    Codec ID                    : S_TEXT/UTF8
    Codec ID/Info               : UTF-8 Plain Text
    Duration                    : 1 h 49 min
    Bit rate                    : 0 b/s
    Count of elements           : 18
    Stream size                 : 566 Bytes (0%)
    Title                       : Forzados
    Language                    : Spanish
    Default                     : Yes
    Forced                      : No

    Menu
    00:00:00.000                : :Chapter 1
    00:05:05.180                : :Chapter 2
    00:13:54.000                : :Chapter 3
    00:22:43.195                : :Chapter 4
    00:29:46.034                : :Chapter 5
    00:35:21.494                : :Chapter 6
    00:42:23.458                : :Chapter 7
    00:52:37.946                : :Chapter 8
    00:58:53.822                : :Chapter 9
    01:07:18.868                : :Chapter 10
    01:15:11.757                : :Chapter 11
    01:24:02.037                : :Chapter 12
    01:29:08.802                : :Chapter 13
    01:34:50.518                : :Chapter 14
    01:43:45.469                : :Chapter 15
    01:52:17.981                : :Chapter 16
    01:55:51.653                : :Chapter 17

  • Peso: 4.08 GiB

Sinopsis

Cuando el mundo comienza a ser invadido por una legión de muertos vivientes, Gerry Lane, un experto investigador de las Naciones Unidas, intentará evitar el fin de la civilización en una carrera contra el tiempo y el destino. La destrucción a la que se ve sometida la raza humana lo lleva a recorrer el mundo entero buscando la solución para frenar esa horrible epidemia.

Ficha técnica

Video trailer de la película

Enlaces de descarga

Rip de Bluray

Descargar World War Z (2013) [UNRATED] HD 1080p Latino – CMHDD




Aportes de DPeliculasHDmega la pass es:dpeliculashdmega.org Aportes de CinemaniaHD la pass es:cinemaniahdd.com

Películas relacionadas

  • The Hater (2020) HD 1080p Latino

    The Hater (2020) HD 1080p Latino

    2020
    The Hater (2020) HD 1080p Latino

    0.0 2h 15m 2020

    Descargar The Hater (2020) HD 1080p Latino. Narra las manipulaciones del maquiavélico Tomek para conseguir...

    Director: Jan Komasa

    Género: Drama

    Actores: Vanessa Aleksander

  • The Hater (2020) PLACEBO Full HD 1080p Latino

    The Hater (2020) PLACEBO Full HD 1080p Latino

    2020
    The Hater (2020) PLACEBO Full HD 1080p Latino

    0.0 2h 15m 2020

    Descargar The Hater (2020) Placebo Full HD 1080p Latino. Narra las manipulaciones del maquiavélico Tomek...

    Director: Jan Komasa

    Género: Drama

    Actores: Vanessa Aleksander

  • The Hater (2020) REMUX 1080p Latino

    The Hater (2020) REMUX 1080p Latino

    2020
    The Hater (2020) REMUX 1080p Latino

    0.0 2h 15m 2020

    Descargar The Hater (2020) REMUX 1080p Latino. Narra las manipulaciones del maquiavélico Tomek para...

    Director: Jan Komasa

    Género: Drama

    Actores: Vanessa Aleksander

  • El Fanático (2019) HD 1080p Latino

    El Fanático (2019) HD 1080p Latino

    2019
    El Fanático (2019) HD 1080p Latino

    0.0 1h 28m 2019

    Descargar El Fanático (2019) HD 1080p Latino. Moose es un fanático del cine de acción que vive obsesionado...

    Director: Kimberley Roper

    Género: Crimen

    Actores: Rob Wolfe

  • El Fanático (2019) PLACEBO Full HD 1080p Latino

    El Fanático (2019) PLACEBO Full HD 1080p Latino

    2019
    El Fanático (2019) PLACEBO Full HD 1080p Latino

    0.0 1h 28m 2019

    Descargar El Fanático (2019) PLACEBO Full HD 1080p Latino. Moose es un fanático del cine de acción...

    Director: Kimberley Roper

    Género: Crimen

    Actores: Rob Wolfe

Comentarios 0