×

¿Problemas para descargar con Mozilla, EDGE? Deshabilita la opción "Abrir vinculos en una pestaña nueva" tal como lo muestra ésta imagen.

Wonka (2023) WEB-DL 4K HDR Latino – CMHDD

191 vistas

Información de Wonka (2023) WEB-DL 4K HDR Latino – CMHDD

Datos de la película

  • Calidad: 4K HDR
  • Audio: Español Latino AC3 5.1 WEB-DL - Ingles AC3 5.1 WEB-DL
  • Subtitulos: Español Latino SRT- FORZADOS SRT
  • Resolución: 3840x1600p
  • Formato: MKV
  • Codec: H.264
  • Encoder: Dracarys
  • Mediainfo: Clic para Mostrar Datos Ver
  • Format                      : Matroska
    Format version              : Version 4
    File size                   : 20.7 GiB
    Duration                    : 1 h 57 min
    Overall bit rate            : 25.2 Mb/s
    Movie name                  : Wonka (2023) WEB-DL 4K HDR Latino - CMHDD
    Encoded date                : UTC 2024-01-20 23:26:28
    Writing application         : mkvmerge v47.0.0 ('Black Flag') 64-bit
    Writing library             : libebml v1.3.10 + libmatroska v1.5.2

    Video
    ID                          : 1
    Format                      : HEVC
    Format/Info                 : High Efficiency Video Coding
    Format profile              : Main 10@L5@High
    HDR format                  : SMPTE ST 2094 App 4, Version 1, HDR10+ Profile B compatible
    Codec ID                    : V_MPEGH/ISO/HEVC
    Duration                    : 1 h 56 min
    Bit rate                    : 24.1 Mb/s
    Width                       : 3 840 pixels
    Height                      : 1 604 pixels
    Display aspect ratio        : 2.40:1
    Frame rate mode             : Constant
    Frame rate                  : 23.976 (24000/1001) FPS
    Original frame rate         : 23.976 (23976/1000) FPS
    Color space                 : YUV
    Chroma subsampling          : 4:2:0 (Type 2)
    Bit depth                   : 10 bits
    Bits/(Pixel*Frame)          : 0.163
    Stream size                 : 19.6 GiB (94%)
    Language                    : Spanish
    Default                     : Yes
    Forced                      : Yes
    Color range                 : Limited
    Color primaries             : BT.2020
    Transfer characteristics    : PQ
    Matrix coefficients         : BT.2020 non-constant
    Mastering display color pri : BT.2020
    Mastering display luminance : min: 0.0050 cd/m2, max: 1000 cd/m2
    Maximum Content Light Level : 1158 cd/m2
    Maximum Frame-Average Light : 394 cd/m2

    Audio #1
    ID                          : 2
    Format                      : E-AC-3
    Format/Info                 : Enhanced AC-3
    Commercial name             : Dolby Digital Plus
    Codec ID                    : A_EAC3
    Duration                    : 1 h 57 min
    Bit rate mode               : Constant
    Bit rate                    : 640 kb/s
    Channel(s)                  : 6 channels
    Channel layout              : L R C LFE Ls Rs
    Sampling rate               : 48.0 kHz
    Frame rate                  : 31.250 FPS (1536 SPF)
    Compression mode            : Lossy
    Delay relative to video     : 1 s 380 ms
    Stream size                 : 537 MiB (3%)
    Language                    : Spanish
    Service kind                : Complete Main
    Default                     : Yes
    Forced                      : Yes

    Audio #2
    ID                          : 3
    Format                      : E-AC-3 JOC
    Format/Info                 : Enhanced AC-3 with Joint Object Coding
    Commercial name             : Dolby Digital Plus with Dolby Atmos
    Codec ID                    : A_EAC3
    Duration                    : 1 h 56 min
    Bit rate mode               : Constant
    Bit rate                    : 768 kb/s
    Channel(s)                  : 6 channels
    Channel layout              : L R C LFE Ls Rs
    Sampling rate               : 48.0 kHz
    Frame rate                  : 31.250 FPS (1536 SPF)
    Compression mode            : Lossy
    Stream size                 : 638 MiB (3%)
    Language                    : English
    Service kind                : Complete Main
    Default                     : No
    Forced                      : No
    Complexity index            : 16
    Number of dynamic objects   : 15
    Bed channel count           : 1 channel
    Bed channel configuration   : LFE

    Text #1
    ID                          : 4
    Format                      : UTF-8
    Codec ID                    : S_TEXT/UTF8
    Codec ID/Info               : UTF-8 Plain Text
    Duration                    : 1 h 44 min
    Bit rate                    : 0 b/s
    Frame rate                  : 0.004 FPS
    Count of elements           : 26
    Stream size                 : 691 Bytes (0%)
    Title                       : Forzado
    Language                    : Spanish
    Default                     : Yes
    Forced                      : Yes

    Text #2
    ID                          : 5
    Format                      : UTF-8
    Codec ID                    : S_TEXT/UTF8
    Codec ID/Info               : UTF-8 Plain Text
    Duration                    : 1 h 54 min
    Bit rate                    : 71 b/s
    Frame rate                  : 0.323 FPS
    Count of elements           : 2219
    Stream size                 : 60.2 KiB (0%)
    Language                    : Spanish
    Default                     : No
    Forced                      : No

     

  • Peso: 20.7 GiB

Sinopsis

Basada en el personaje que protagoniza «Charlie y la fábrica de chocolate», el libro infantil más emblemático de Roald Dahl y uno de los más vendidos de todos los tiempos, «Wonka» cuenta la historia de cómo el mayor inventor, mago y chocolatero del mundo se convirtió en el querido Willy Wonka que conocemos hoy en día.

Ficha técnica

Video trailer de la película

Enlaces de descarga

Rip de Bluray

Descargar Wonka (2023) WEB-DL 4K HDR Latino – CMHDD




Aportes de DPeliculasHDmega la pass es:dpeliculashdmega.org Aportes de CinemaniaHD la pass es:cinemaniahdd.com Aportes recientes:cinemaniahdd.net
Guardado en : Comedia , Familia , Fantasía

Películas relacionadas

descargar Wonka (2023) WEB-DL 4K HDR Latino – CMHDD 4K HDR 1080p gratis, Wonka (2023) WEB-DL 4K HDR Latino – CMHDD 4K HDR mega 1 link, Wonka (2023) WEB-DL 4K HDR Latino – CMHDD 4K HDR pelicula completa, descargar Wonka (2023) WEB-DL 4K HDR Latino – CMHDD 4K HDR gratis en mega.

Wonka (2023) WEB-DL 4K HDR Latino – CMHDD pelicula full hd, Wonka (2023) WEB-DL 4K HDR Latino – CMHDD mega latino, Wonka (2023) WEB-DL 4K HDR Latino – CMHDD 4k latino, Wonka (2023) WEB-DL 4K HDR Latino – CMHDD pelicula completa, Wonka (2023) WEB-DL 4K HDR Latino – CMHDD descargar gratis, descargar Wonka (2023) WEB-DL 4K HDR Latino – CMHDD pelicula latino, Wonka (2023) WEB-DL 4K HDR Latino – CMHDD 1 link mega, Wonka (2023) WEB-DL 4K HDR Latino – CMHDD 1 link google drive, Wonka (2023) WEB-DL 4K HDR Latino – CMHDD hd 1080p latino.
Comentarios 0