×

¿Problemas para descargar con Mozilla, EDGE? Deshabilita la opción "Abrir vinculos en una pestaña nueva" tal como lo muestra ésta imagen.

La Mujer Maravilla: Linajes de Sangre (2019) REMUX 1080p Latino

622 vistas

Información de La Mujer Maravilla: Linajes de Sangre (2019) REMUX 1080p Latino

Datos de la película

  • Calidad: Full 1080p
  • Audio: Español Latino AC3 5.1 BLURAY - Ingles DTS 5.1 BLURAY
  • Subtitulos: Español Latino PGS - Ingles PGS
  • Resolución: 1920x1080p
  • Formato: MKV
  • Codec: H.264
  • Encoder: CinefiloCool
  • Mediainfo: Clic para Mostrar Datos Ver
  • Wonder Woman - Bloodlines (2019) REMUX 1080p Latino-CMHDD.mkv
    Format                      : Matroska
    Format version              : Version 4
    File size                   : 10.4 GiB
    Duration                    : 1 h 22 min
    Overall bit rate mode       : Variable
    Overall bit rate            : 18.0 Mb/s
    Movie name                  : CinemaniaHDD.Net
    Encoded date                : UTC 2019-10-17 04:40:48
    Writing application         : mkvmerge v38.0.0 ('The Silent Type') 64-bit
    Writing library             : libebml v1.3.9 + libmatroska v1.5.2
    Attachments                 : CINEMANIAHD.png

    Video
    ID                          : 1
    Format                      : AVC
    Format/Info                 : Advanced Video Codec
    Format profile              : High@L4.1
    Format settings             : CABAC / 4 Ref Frames
    Format settings, CABAC      : Yes
    Format settings, ReFrames   : 4 frames
    Format settings, GOP        : M=1, N=12
    Codec ID                    : V_MPEG4/ISO/AVC
    Duration                    : 1 h 22 min
    Bit rate mode               : Variable
    Bit rate                    : 15.0 Mb/s
    Maximum bit rate            : 38.0 Mb/s
    Width                       : 1 920 pixels
    Height                      : 1 080 pixels
    Display aspect ratio        : 16:9
    Frame rate mode             : Constant
    Frame rate                  : 23.976 (24000/1001) FPS
    Color space                 : YUV
    Chroma subsampling          : 4:2:0
    Bit depth                   : 8 bits
    Scan type                   : Progressive
    Bits/(Pixel*Frame)          : 0.301
    Stream size                 : 8.67 GiB (83%)
    Title                       : Full HD1080p [REMUX]
    Default                     : Yes
    Forced                      : No

    Audio #1
    ID                          : 2
    Format                      : AC-3
    Format/Info                 : Audio Coding 3
    Commercial name             : Dolby Digital
    Codec ID                    : A_AC3
    Duration                    : 1 h 22 min
    Bit rate mode               : Constant
    Bit rate                    : 640 kb/s
    Channel(s)                  : 6 channels
    Channel layout              : L R C LFE Ls Rs
    Sampling rate               : 48.0 kHz
    Frame rate                  : 31.250 FPS (1536 SPF)
    Bit depth                   : 16 bits
    Compression mode            : Lossy
    Stream size                 : 379 MiB (4%)
    Title                       : AC3_5.1_Bluray_Esp
    Language                    : Spanish
    Service kind                : Complete Main
    Default                     : Yes
    Forced                      : Yes

    Audio #2
    ID                          : 3
    Format                      : DTS XLL
    Format/Info                 : Digital Theater Systems
    Commercial name             : DTS-HD Master Audio
    Codec ID                    : A_DTS
    Duration                    : 1 h 22 min
    Bit rate mode               : Variable
    Bit rate                    : 2 329 kb/s
    Channel(s)                  : 6 channels
    Channel layout              : C L R Ls Rs LFE
    Sampling rate               : 48.0 kHz
    Frame rate                  : 93.750 FPS (512 SPF)
    Bit depth                   : 24 bits
    Compression mode            : Lossless
    Stream size                 : 1.35 GiB (13%)
    Title                       : DTS-HD_5.1_Bluray_Eng
    Language                    : English
    Default                     : No
    Forced                      : No

    Text #1
    ID                          : 4
    Format                      : PGS
    Muxing mode                 : zlib
    Codec ID                    : S_HDMV/PGS
    Codec ID/Info               : Picture based subtitle format used on BDs/HD-DVDs
    Duration                    : 1 h 21 min
    Bit rate                    : 28.2 kb/s
    Count of elements           : 1948
    Stream size                 : 16.5 MiB (0%)
    Title                       : Sub_Esp [PGS]
    Language                    : Spanish
    Default                     : No
    Forced                      : No

    Text #2
    ID                          : 5
    Format                      : PGS
    Muxing mode                 : zlib
    Codec ID                    : S_HDMV/PGS
    Codec ID/Info               : Picture based subtitle format used on BDs/HD-DVDs
    Duration                    : 1 h 19 min
    Bit rate                    : 33.0 kb/s
    Count of elements           : 2326
    Stream size                 : 18.8 MiB (0%)
    Title                       : Sub_Eng [PGS]
    Language                    : English
    Default                     : No
    Forced                      : No

    Text #3
    ID                          : 6
    Format                      : UTF-8
    Codec ID                    : S_TEXT/UTF8
    Codec ID/Info               : UTF-8 Plain Text
    Duration                    : 1 h 19 min
    Bit rate                    : 46 b/s
    Count of elements           : 973
    Stream size                 : 27.5 KiB (0%)
    Title                       : Sub_Esp
    Language                    : Spanish
    Default                     : No
    Forced                      : No

    Menu
    00:00:00.000                : en:Chapter 01
    00:10:04.395                : en:Chapter 02
    00:19:53.483                : en:Chapter 03
    00:28:26.538                : en:Chapter 04
    00:38:44.030                : en:Chapter 05
    00:47:37.229                : en:Chapter 06
    00:54:35.313                : en:Chapter 07
    01:03:48.157                : en:Chapter 08
    01:12:13.287                : en:Chapter 09
    01:17:54.836                : en:Chapter 10

  • Peso: 10.4 GiB

Sinopsis

Descargar La Mujer Maravilla: Linajes de Sangre (2019) REMUX 1080p Latino. Diana decide pelear para salvar a su amor Steve Trevor y recuperar ambos a Estados Unidos. Tras convertirse en la «embajadora de la paz», su voluntad, tan fuerte como su cuerpo y su propio espíritu, le lleva a encomendarse a una misión en la que debe ayudar a una joven que forma parte de una organización llamada Villainy, Inc., cuyos miembros están planeando invadir la isla de Themyscira.

Ficha técnica

Video trailer de la película

Enlaces de descarga

Rip de Bluray

Descargar La Mujer Maravilla: Linajes de Sangre (2019) REMUX 1080p Latino




Aportes de DPeliculasHDmega la pass es:dpeliculashdmega.org Aportes de CinemaniaHD la pass es:cinemaniahdd.com
Guardado en : Acción , Animación , Fantasía , Remux

Películas relacionadas

descargar La Mujer Maravilla: Linajes de Sangre (2019) REMUX 1080p Latino Full 1080p 1080p gratis, La Mujer Maravilla: Linajes de Sangre (2019) REMUX 1080p Latino Full 1080p mega 1 link, La Mujer Maravilla: Linajes de Sangre (2019) REMUX 1080p Latino Full 1080p pelicula completa, descargar La Mujer Maravilla: Linajes de Sangre (2019) REMUX 1080p Latino Full 1080p gratis en mega.

La Mujer Maravilla: Linajes de Sangre (2019) REMUX 1080p Latino pelicula full hd, La Mujer Maravilla: Linajes de Sangre (2019) REMUX 1080p Latino mega latino, La Mujer Maravilla: Linajes de Sangre (2019) REMUX 1080p Latino 4k latino, La Mujer Maravilla: Linajes de Sangre (2019) REMUX 1080p Latino pelicula completa, La Mujer Maravilla: Linajes de Sangre (2019) REMUX 1080p Latino descargar gratis, descargar La Mujer Maravilla: Linajes de Sangre (2019) REMUX 1080p Latino pelicula latino, La Mujer Maravilla: Linajes de Sangre (2019) REMUX 1080p Latino 1 link mega, La Mujer Maravilla: Linajes de Sangre (2019) REMUX 1080p Latino 1 link google drive, La Mujer Maravilla: Linajes de Sangre (2019) REMUX 1080p Latino hd 1080p latino.
Comentarios 0